Browse Collections Artists Sources   Search Dates

Add Show    List Management    Help


The Big Wu 07/16/05
RIBCO, Rock Island, IL
Comments Add Comment    Source Collectors    Add to Collection    Add to Want List    History
Source # 123189 Other Sources
Entered by
Checksums Big_Wu2005-07-16.mbho603a.flac16.ffp
Disc Counts 0 / 0
Media Size
Date Circulated
Date Added

12/22/2012
Source Summary Source: MBHO 603a/actives > V3(48k) > P1 @48k (DIN-DFC-FOB)
Transfer: P1> Echo MIA MIDI > Wavelab > Samplitude(Resample-ultra High 1) > CDwave v1.93 > FLAC 
  Archive
Source Information - Download Text | Download Zip
The BIG WU
Rock Island Rocks Festival
Outdoor stage @ RIBCO
Rock Island Brewing Co. Rock Island IL
July 16th 2005

Source: MBHO 603a/actives > V3(48k) > P1 @48k (DIN-DFC-FOB)
Transfer: P1> Echo MIA MIDI > Wavelab > Samplitude(Resample-ultra High 1) > CDwave v1.93 > FLAC16(level 8)
Tape and transfer by: Justin Hoogerwerf


disk one
1) break of day
2) red sneakers
3) love handles
4) make believers
5) southern energy
6) kings of bass
7) picture book
8) kick in the head
9) dixie chicken
disk two

10) silcanturnitover
11) bloodhound
12) ballad of dan toe
13) funky bug
14) texas fireball

this was a free show, only about 50 in attendance due to extreme heat.
big thanks to erik foelski for the use of the mics and preamp. you rock erik!!!

BW2005-07-16d101.flac:6fadd4821b66b92f2fad8568336d7369
BW2005-07-16d102.flac:8d03b53142c488beff45fe4dbeb49275
BW2005-07-16d103.flac:b975133716a1fccd8a9d6be2ea37f365
BW2005-07-16d104.flac:a4ad39ef81ac21efdbfd80a405dc05e1
BW2005-07-16d105.flac:3c55d62918b13ef220f11cb86c8251d3
BW2005-07-16d106.flac:fe6731ce465cf178af658b0b5eca38bd
BW2005-07-16d107.flac:f693bef2dbc148c437a3d7597b139aff
BW2005-07-16d108.flac:2bc0d8b6a4e57d372cae24e2fb4280ac
BW2005-07-16d109.flac:793dba1ba08d3616eaa7b494a0e99292
BW2005-07-16d201.flac:f0c9e23ef0365fc241f88ef924b89399
BW2005-07-16d202.flac:119fa9b89bbfd3d7f2ea32d22875a852
BW2005-07-16d203.flac:290a3f80d5ff4da0f45de1c98f066d3b
BW2005-07-16d204.flac:8f29a766e0d31d1fc504cd05acb240cd
BW2005-07-16d205.flac:ec46c94e474a7b01f509fa874377e38d

    length     expanded size   cdr  WAVE problems filename
     8:58.66       95058476    ---   --   ---xx   BW2005-07-16d101.flac
     7:10.04       75861452    ---   --   ---xx   BW2005-07-16d102.flac
     5:49.33       61641260    ---   --   ---xx   BW2005-07-16d103.flac
    11:52.07      125613308    ---   --   ---xx   BW2005-07-16d104.flac
    14:27.27      153002348    ---   --   ---xx   BW2005-07-16d105.flac
     3:09.23       33393740    ---   --   ---xx   BW2005-07-16d106.flac
     2:49.26       29872796    ---   --   ---xx   BW2005-07-16d107.flac
     8:01.12       84876668    ---   --   ---xx   BW2005-07-16d108.flac
     9:29.44      100475132    ---   --   ---xx   BW2005-07-16d109.flac
     5:53.15       62304524    ---   --   ---xx   BW2005-07-16d201.flac
     7:31.55       79685804    ---   --   ---xx   BW2005-07-16d202.flac
     8:43.07       92273708    ---   --   ---xx   BW2005-07-16d203.flac
     3:15.60       34539164    ---   --   ---xx   BW2005-07-16d204.flac
     6:58.67       73892828    ---   --   ---xx   BW2005-07-16d205.flac
   104:09.71     1102491208 B                     (totals for 14 files, 0.6037 overall compression ratio)

Show Checksums
Big_Wu2005-07-16.mbho603a.flac16.ffp
BW2005-07-16d101.flac:6fadd4821b66b92f2fad8568336d7369
BW2005-07-16d102.flac:8d03b53142c488beff45fe4dbeb49275
BW2005-07-16d103.flac:b975133716a1fccd8a9d6be2ea37f365
BW2005-07-16d104.flac:a4ad39ef81ac21efdbfd80a405dc05e1
BW2005-07-16d105.flac:3c55d62918b13ef220f11cb86c8251d3
BW2005-07-16d106.flac:fe6731ce465cf178af658b0b5eca38bd
BW2005-07-16d107.flac:f693bef2dbc148c437a3d7597b139aff
BW2005-07-16d108.flac:2bc0d8b6a4e57d372cae24e2fb4280ac
BW2005-07-16d109.flac:793dba1ba08d3616eaa7b494a0e99292
BW2005-07-16d201.flac:f0c9e23ef0365fc241f88ef924b89399
BW2005-07-16d202.flac:119fa9b89bbfd3d7f2ea32d22875a852
BW2005-07-16d203.flac:290a3f80d5ff4da0f45de1c98f066d3b
BW2005-07-16d204.flac:8f29a766e0d31d1fc504cd05acb240cd
BW2005-07-16d205.flac:ec46c94e474a7b01f509fa874377e38d

Comments
Add Comment
Date User Comment