Browse Collections Artists Sources   Search Dates

Add Show    List Management    Help


Phish 10/25/96
Hampton Coliseum, Hampton, VA
Comments Add Comment    Source Collectors    Add to Collection    Add to Want List    History
Source # 123220 Other Sources
Entered by Jason Sobel
Checksums FFP , FLAC-md5
Disc Counts 0 / 0
Media Size Compressed: 801.33 MB (840257429 bytes)
Date Circulated
Date Added
12/23/2012
12/26/2012
Source Summary flac16; Schoeps MK4/Schoeps CMBI -> Tascam DA-P1 (48kHz); Tascam DA-20 -> Sound Devices 744T -> Samplitude Professional v11.2.1 -> FLAC/44.1k; Transferred by Charlie Miller 
Source Information - Download Text | Download Zip
Phish - October 25, 1996
Hampton Coliseum - Hampton, VA

Recording Info:
Schoeps MK4 -> Schoeps CMB1 -> Dat (Tascam DA-P1/48k)

Transfer Info:
Dat (Tascam DA-20) -> Sound Devices 744T -> Samplitude Professional v11.2.1 -> FLAC/44.1k
(2 Discs Audio / 1 DVD FLAC)

All Transfers and Mastering By Charlie Miller
[email protected]
December 23, 2012

Set 1:
d1t01 - Tuning
d1t02 - Ha Ha Ha
d1t03 - Taste
d1t04 - Makisupa Policeman
d1t05 - Maze
d1t06 - Billy Breathes
d1t07 - Mound
d1t08 - Guelah Papyrus
d1t09 - I Didn't Know
d1t10 - Stash
d1t11 - The Squirming Coil

Set 2:
d2t01 - Tube
d2t02 - Prince Caspian
d2t03 - Timber Ho
d2t04 - TMWSIY -> Avenu Malkenu -> TMWSIY
d2t05 - NICU
d2t06 - Free
d2t07 - Strange Design
d2t08 - Harry Hood
d2t09 - Cavern
d2t10 - The Star-Spangled Banner

Encore:
d2t11 - Johnny B. Goode


SHNTOOL OUTPUT:
    length     expanded size    cdr  WAVE problems  fmt   ratio  filename
     1:13.11       12903116 B   ---   --   ---xx   flac  0.4171  phish1996-10-25d1t01.flac
     1:37.13       17141420 B   ---   --   ---xx   flac  0.5916  phish1996-10-25d1t02.flac
     7:23.41       78241676 B   ---   --   ---xx   flac  0.5589  phish1996-10-25d1t03.flac
     6:27.15       68302124 B   ---   --   ---xx   flac  0.4935  phish1996-10-25d1t04.flac
    11:09.41      118108076 B   ---   --   ---xx   flac  0.5558  phish1996-10-25d1t05.flac
     4:58.34       52647212 B   ---   --   ---xx   flac  0.5443  phish1996-10-25d1t06.flac
     5:50.02       61744748 B   ---   --   ---xx   flac  0.5491  phish1996-10-25d1t07.flac
     5:33.00       58741244 B   ---   --   ---xx   flac  0.5397  phish1996-10-25d1t08.flac
     4:40.47       49502588 B   ---   --   ---xx   flac  0.5336  phish1996-10-25d1t09.flac
    13:44.58      145490060 B   ---   --   ---xx   flac  0.5518  phish1996-10-25d1t10.flac
    12:19.26      130420796 B   ---   --   ---xx   flac  0.4845  phish1996-10-25d1t11.flac
     4:15.23       45036140 B   ---   --   ---xx   flac  0.5475  phish1996-10-25d2t01.flac
     8:11.24       86668892 B   ---   --   ---xx   flac  0.5450  phish1996-10-25d2t02.flac
     6:34.27       69565148 B   ---   --   ---xx   flac  0.5499  phish1996-10-25d2t03.flac
     6:41.65       70889324 B   ---   --   ---xx   flac  0.5005  phish1996-10-25d2t04.flac
     6:29.39       68711372 B   ---   --   ---xx   flac  0.5410  phish1996-10-25d2t05.flac
     8:18.03       87854300 B   ---   --   ---xx   flac  0.6039  phish1996-10-25d2t06.flac
     2:52.67       30498428 B   ---   --   ---xx   flac  0.5348  phish1996-10-25d2t07.flac
    14:45.34      156194012 B   ---   --   ---xx   flac  0.5513  phish1996-10-25d2t08.flac
     5:46.66       61189676 B   ---   --   ---xx   flac  0.6071  phish1996-10-25d2t09.flac
     1:32.53       16353500 B   ---   --   ---xx   flac  0.5349  phish1996-10-25d2t10.flac
     5:06.07       53994908 B   ---   --   ---xx   flac  0.6171  phish1996-10-25d2t11.flac
   145:31.21     1540198760 B                            0.5455  (22 files)

Show Checksums
FFP
phish1996-10-25d1t01.flac:838649b66828ff51129bdeff341b29b6
phish1996-10-25d1t02.flac:6b4f12da82740c00e003fc462c0d9900
phish1996-10-25d1t03.flac:3a20b1d856397fd8ef9dbd42944ca701
phish1996-10-25d1t04.flac:c0dbcc795a37629be37097e9d4503751
phish1996-10-25d1t05.flac:db08a22327ed2f0106def7affae37472
phish1996-10-25d1t06.flac:ef1270925896c452602610a56160d496
phish1996-10-25d1t07.flac:9818bf9bc1bbdadebb38ea389d2c252b
phish1996-10-25d1t08.flac:0df2663702a83bac07d88d4941de8ea5
phish1996-10-25d1t09.flac:a5573e8decec56732f25e8933f767c2f
phish1996-10-25d1t10.flac:107aecbd8256d6216c24e7dfadddf2cd
phish1996-10-25d1t11.flac:49e4165e263f66fb7ce59f2774c74743
phish1996-10-25d2t01.flac:c9cb766a543528f305ca64f0fc4922e7
phish1996-10-25d2t02.flac:953671069e01c7af0a8a61772afe7fba
phish1996-10-25d2t03.flac:d309630027801f72b58b1a466fd23f27
phish1996-10-25d2t04.flac:6a656718be8a66433c0f01e088364b5a
phish1996-10-25d2t05.flac:f3e35b888113fbebb163f4f3bd286a36
phish1996-10-25d2t06.flac:3c871bf54a24ca42bbd8379edeac8797
phish1996-10-25d2t07.flac:62a5be94ef2ccf6be0a8cb18030c1f66
phish1996-10-25d2t08.flac:fd34bb04fea8b3663c959e9d10ccdee6
phish1996-10-25d2t09.flac:b20d5bddf95dcd9d426eac90bffa22e5
phish1996-10-25d2t10.flac:f033acb92e983655ecfe0137c36feb6e
phish1996-10-25d2t11.flac:e6c4ae13ca5268fc1f76fad279cb737f
FLAC-md5
407f324d2e9cc4a61c5bd0dd016e0e16 *phish1996-10-25d1t01.flac
77c8729ab6c65d8015af49666857172c *phish1996-10-25d1t02.flac
cd3ee6047f3902e0649e9ac04b09887a *phish1996-10-25d1t03.flac
02cb2b36104e254fc218a08eafa9bfe7 *phish1996-10-25d1t04.flac
e1f5a5a2c4632f60d7190fe259718939 *phish1996-10-25d1t05.flac
5a5b038a23720855bea42359dbc273ab *phish1996-10-25d1t06.flac
c7bb692d260a510893b623f7708cff0d *phish1996-10-25d1t07.flac
759dbc43bca15ec0d5ed57dbd1ac9a8b *phish1996-10-25d1t08.flac
7356539c78d54364da6883c50eaaa0f3 *phish1996-10-25d1t09.flac
386aaa25d6ccde26e2e104158d359915 *phish1996-10-25d1t10.flac
c4c82680d376c60994969b030b26ef50 *phish1996-10-25d1t11.flac
cdbb8837ba7370ccafd434efb5060ac7 *phish1996-10-25d2t01.flac
1a2829cee8f878a31e0c82eee1778c8d *phish1996-10-25d2t02.flac
e2ccb6571bc674763974947ce5693bd7 *phish1996-10-25d2t03.flac
f0651bf623446cfd1ae41f31f95674b9 *phish1996-10-25d2t04.flac
75ca667f1a349ebe76326a2b194aa8db *phish1996-10-25d2t05.flac
49b2f9cc3d33f6fc722ffa97f0ba97a3 *phish1996-10-25d2t06.flac
f8b50b7442b79a41a24c0c10994471fc *phish1996-10-25d2t07.flac
1d6e2c9cfca36a74feaeff8153129c82 *phish1996-10-25d2t08.flac
1ab024810b9d1d4d679c9a3c6a7be0a3 *phish1996-10-25d2t09.flac
f87a24c3dfa1871c7ef6316ab9a8e9d6 *phish1996-10-25d2t10.flac
8d95157b9d43bd0e6f842744409f63fd *phish1996-10-25d2t11.flac

Comments
Add Comment
Other Sources (comments)
FOB AKG 483 > SX-M2 > D7 >... (0) FOB AKG 483s > Sonosax SX... (0) AUD; Casio DA-R100 >... (1) FOB Schoeps mk41 >... (0) AKG 460b/ck61 > AKG b18 >... (0) Nakamichi CM300's/CP4's >... (1) flac16; AKG... (0) flac16, 48kHz;... (0) flac16, 48kHz;... (0) flac16 48kHz... (0) flac16 44.1khz... (0)
Date User Comment