Browse Collections Artists Sources   Search Dates

Add Show    List Management    Help


Phish 10/25/96
Hampton Coliseum, Hampton, VA
Comments Add Comment    Source Collectors    Add to Collection    Add to Want List    History
Source # 123221 Other Sources
Entered by Jason Sobel
Checksums 48kHz-FFP , 48kHz-FLAC-md5
Disc Counts 0 / 0
Media Size Compressed: 869.71 MB (911957379 bytes)
Date Circulated
Date Added
12/23/2012
12/26/2012
Source Summary flac16, 48kHz; Schoeps MK4/Schoeps CMBI -> Tascam DA-P1 (48kHz); Tascam DA-20 -> Sound Devices 744T -> Samplitude Professional v11.2.1 -> FLAC/48k; Transferred by Charlie Miller 
Source Information - Download Text | Download Zip
Phish - October 25, 1996
Hampton Coliseum - Hampton, VA

Recording Info:
Schoeps MK4 -> Schoeps CMB1 -> Dat (Tascam DA-P1/48k)

Transfer Info:
Dat (Tascam DA-20) -> Sound Devices 744T -> Samplitude Professional v11.2.1 -> FLAC/48k
(1 DVD FLAC)

All Transfers and Mastering By Charlie Miller
[email protected]
December 23, 2012

Set 1:
s1t01 - Tuning
s1t02 - Ha Ha Ha
s1t03 - Taste
s1t04 - Makisupa Policeman
s1t05 - Maze
s1t06 - Billy Breathes
s1t07 - Mound
s1t08 - Guelah Papyrus
s1t09 - I Didn't Know
s1t10 - Stash
s1t11 - The Squirming Coil

Set 2:
s2t01 - Tube
s2t02 - Prince Caspian
s2t03 - Timber Ho
s2t04 - TMWSIY -> Avenu Malkenu -> TMWSIY
s2t05 - NICU
s2t06 - Free
s2t07 - Strange Design
s2t08 - Harry Hood
s2t09 - Cavern
s2t10 - The Star-Spangled Banner

Encore:
s2t11 - Johnny B. Goode


SHNTOOL OUTPUT:
    length     expanded size    cdr  WAVE problems  fmt   ratio  filename
     1:13.152      14045280 B   cxx   --   ---xx   flac  0.4204  phish1996-10-25s1t01.flac
     1:37.180      18658564 B   cxx   --   ---xx   flac  0.5835  phish1996-10-25s1t02.flac
     7:23.541      85159952 B   cxx   --   ---xx   flac  0.5520  phish1996-10-25s1t03.flac
     6:27.197      74341832 B   cxx   --   ---xx   flac  0.4913  phish1996-10-25s1t04.flac
    11:09.545     128552676 B   cxx   --   ---xx   flac  0.5495  phish1996-10-25s1t05.flac
     4:58.452      57302840 B   cxx   --   ---xx   flac  0.5414  phish1996-10-25s1t06.flac
     5:50.028      67205364 B   cxx   --   ---xx   flac  0.5462  phish1996-10-25s1t07.flac
     5:33.000      63936060 B   cxx   --   ---xx   flac  0.5374  phish1996-10-25s1t08.flac
     4:40.636      53882196 B   cxx   --   ---xx   flac  0.5322  phish1996-10-25s1t09.flac
    13:44.765     158354900 B   cxx   --   ---xx   flac  0.5485  phish1996-10-25s1t10.flac
    12:19.349     141955136 B   cxx   --   ---xx   flac  0.4861  phish1996-10-25s1t11.flac
     4:15.313      49020132 B   cxx   --   ---xx   flac  0.5455  phish1996-10-25s2t01.flac
     8:11.322      94333828 B   cxx   --   ---xx   flac  0.5433  phish1996-10-25s2t02.flac
     6:34.349      75715132 B   cxx   --   ---xx   flac  0.5483  phish1996-10-25s2t03.flac
     6:41.870      77159164 B   cxx   --   ---xx   flac  0.5024  phish1996-10-25s2t04.flac
     6:29.517      74787252 B   cxx   --   ---xx   flac  0.5416  phish1996-10-25s2t05.flac
     8:18.048      95625240 B   cxx   --   ---xx   flac  0.6032  phish1996-10-25s2t06.flac
     2:52.892      33195388 B   cxx   --   ---xx   flac  0.5358  phish1996-10-25s2t07.flac
    14:45.446     170005620 B   cxx   --   ---xx   flac  0.5521  phish1996-10-25s2t08.flac
     5:46.878      66600560 B   cxx   --   ---xx   flac  0.6068  phish1996-10-25s2t09.flac
     1:32.719      17802164 B   cxx   --   ---xx   flac  0.5369  phish1996-10-25s2t10.flac
     5:06.075      58766528 B   cxx   --   ---xx   flac  0.6176  phish1996-10-25s2t11.flac
   145:31.275    1676405808 B                            0.5440  (22 files)

Show Checksums
48kHz-FFP
phish1996-10-25s1t01.flac:2cb26023a5ece0a198bb1a53831f5faa
phish1996-10-25s1t02.flac:70aec051f96dcc7a03be4d9be0638ea0
phish1996-10-25s1t03.flac:816dd51536d4cf7fc5176f8c66925c89
phish1996-10-25s1t04.flac:27e9fc51c2fe272237dce96fe79f41af
phish1996-10-25s1t05.flac:df5ad7a0606b48c0342c31572c767521
phish1996-10-25s1t06.flac:af94ebc1ba6eb132e2840c46a020ac40
phish1996-10-25s1t07.flac:b4fcb00a5ae924700da2f46aa88aa474
phish1996-10-25s1t08.flac:0524fb03d6a9bff895d7ea8dfcc6276b
phish1996-10-25s1t09.flac:89e964282d8c6a002958359b0e42b990
phish1996-10-25s1t10.flac:6dfca63acf67bf11925c686cc4056d1b
phish1996-10-25s1t11.flac:848919e6b8d44e95545a9905a657ee08
phish1996-10-25s2t01.flac:f42e113acdcb445b1f9540b4cc6f11d6
phish1996-10-25s2t02.flac:a02682153a9cc60947c5aa511aeb445b
phish1996-10-25s2t03.flac:bf204a12313e27e0651853adf5f73af1
phish1996-10-25s2t04.flac:a6dca6ec17b319fad80558935c699d56
phish1996-10-25s2t05.flac:e50a881db612434ef7f61c6868b83c60
phish1996-10-25s2t06.flac:c011359b4d8695d9f4bf2f7c27de9644
phish1996-10-25s2t07.flac:91017adffbe14bff71d7d2892f410567
phish1996-10-25s2t08.flac:6ee22ada5267f6cfef01e2b758194db5
phish1996-10-25s2t09.flac:714e1a6a638c20453bd278a56246dedf
phish1996-10-25s2t10.flac:a6b253b3ba066c20df2d87d71b817bd1
phish1996-10-25s2t11.flac:1218df09b149ad8485543b6eba522b52
48kHz-FLAC-md5
9a5261ceab6b6caf4e62b2776b72fe33 *phish1996-10-25s1t01.flac
562512308903e8b3c143645cc9603306 *phish1996-10-25s1t02.flac
78fad51985a22a8fe16c0a3fb6edee9a *phish1996-10-25s1t03.flac
91e696f096d840491daaddc8d94aa64b *phish1996-10-25s1t04.flac
56d49470ad0d36f6f9e047900025d5da *phish1996-10-25s1t05.flac
86e4484314c93bb8b005e5774e4ea074 *phish1996-10-25s1t06.flac
aca6e742fa155d325eb68f29c6e8c64f *phish1996-10-25s1t07.flac
1e0ef591f79a577707fb59196c69c5a7 *phish1996-10-25s1t08.flac
2dedd9c7f1c5b2baba0bc1a263775b6b *phish1996-10-25s1t09.flac
0a9fbee25ce5b28cd5da65f890291ad5 *phish1996-10-25s1t10.flac
c90d48983b7ac54d9bb4a95212a72e5d *phish1996-10-25s1t11.flac
de074c8c662c700e1dbd4de85769fcfd *phish1996-10-25s2t01.flac
061f92ecc8b035aae00d6bb0f8d6cb8d *phish1996-10-25s2t02.flac
8f94a10ba2f56258c78f95056783ac4d *phish1996-10-25s2t03.flac
278ab9f4d81cb6ad551a2c80875dfed1 *phish1996-10-25s2t04.flac
86f3c9fffe3e0cc2307f8e9811dc8ba3 *phish1996-10-25s2t05.flac
10396f557172e75c8ba72c78bf558dcf *phish1996-10-25s2t06.flac
0e142cc0d98d71017c25de73b338cc76 *phish1996-10-25s2t07.flac
e84802900e2540bea2e8967365388a2d *phish1996-10-25s2t08.flac
772418c31f14a3191caea85952708f43 *phish1996-10-25s2t09.flac
ae411799904bf1fdd1c30640df284963 *phish1996-10-25s2t10.flac
6c774818e78a9adbcf38e63114d33e56 *phish1996-10-25s2t11.flac

Comments
Add Comment
Other Sources (comments)
FOB AKG 483 > SX-M2 > D7 >... (0) FOB AKG 483s > Sonosax SX... (0) AUD; Casio DA-R100 >... (1) FOB Schoeps mk41 >... (0) AKG 460b/ck61 > AKG b18 >... (0) Nakamichi CM300's/CP4's >... (1) flac16; AKG... (0) flac16; Schoeps... (0) flac16, 48kHz;... (0) flac16 48kHz... (0) flac16 44.1khz... (0)
Date User Comment