Browse Collections Artists Sources   Search Dates

Add Show    List Management    Help


Phish 10/26/96
Charlotte Coliseum, Charlotte, NC
Comments Add Comment    Source Collectors    Add to Collection    Add to Want List    History
Source # 123223 Other Sources
Entered by Jason Sobel
Checksums FFP , FLAC-md5
Disc Counts 0 / 0
Media Size Compressed: 954.06 MB (1000403726 bytes)
Date Circulated
Date Added
12/26/2012
12/26/2012
Source Summary flac16; (2) Nakamichi CM300/CP4 + (1) Nakamichi CM300/CP1 -> Dat (48k); Tascam DA-20 -> Sound Devices 744T -> Samplitude Professional v11.2.1 -> FLAC/48kHz; Transferred by Charlie Miller 
Source Information - Download Text | Download Zip
Phish - October 26, 1996
Charlotte Coliseum - Charlotte, NC

Recording Info:
(2) Nakamichi CM300/CP4 + (1) Nakamichi CM300/CP1 -> Dat (48k)

Transfer Info:
Dat (Tascam DA-20) -> Sound Devices 744T -> Samplitude Professional v11.2.1 -> FLAC/48k
(1 DVD FLAC)

All Transfers and Mastering By Charlie Miller
[email protected]
December 25, 2012

Set 1:
s1t01 - Julius
s1t02 - Cars Trucks And Buses
s1t03 - Wolfman's Brother
s1t04 - Reba
s1t05 - Train Song
s1t06 - Character Zero
s1t07 - It's Ice
s1t08 - Theme From The Bottom
s1t09 - Sample In A Jar

Set 2:
s2t01 - Down With Disease
s2t02 - You Enjoy Myself
s2t03 - Sparkle
s2t04 - Simple
s2t05 - McGrupp And The Watchful Hosemasters
s2t06 - Waste
s2t07 - Run Like An Antelope

Encore:
s2t08 - Fire


SHNTOOL OUTPUT:
    length     expanded size    cdr  WAVE problems  fmt   ratio  filename
     8:56.328     102975016 B   cxx   --   ---xx   flac  0.5859  phish1996-10-26s1t01.flac
     4:22.058      50315088 B   cxx   --   ---xx   flac  0.5692  phish1996-10-26s1t02.flac
     4:57.237      57069636 B   cxx   --   ---xx   flac  0.5686  phish1996-10-26s1t03.flac
    13:26.964     154937124 B   cxx   --   ---xx   flac  0.5594  phish1996-10-26s1t04.flac
     4:25.582      50991704 B   cxx   --   ---xx   flac  0.5429  phish1996-10-26s1t05.flac
     5:36.468      64601940 B   cxx   --   ---xx   flac  0.6021  phish1996-10-26s1t06.flac
     9:14.820     106525464 B   cxx   --   ---xx   flac  0.5715  phish1996-10-26s1t07.flac
     8:25.275      97012880 B   cxx   --   ---xx   flac  0.5802  phish1996-10-26s1t08.flac
     5:13.114      60117960 B   cxx   --   ---xx   flac  0.5983  phish1996-10-26s1t09.flac
    11:14.504     129504728 B   cxx   --   ---xx   flac  0.5806  phish1996-10-26s2t01.flac
    20:12.644     232827780 B   cxx   --   ---xx   flac  0.5627  phish1996-10-26s2t02.flac
     3:38.130      41881076 B   cxx   --   ---xx   flac  0.5904  phish1996-10-26s2t03.flac
    16:13.152     186845252 B   cxx   --   ---xx   flac  0.5881  phish1996-10-26s2t04.flac
     9:14.419     106448588 B   cxx   --   ---xx   flac  0.5465  phish1996-10-26s2t05.flac
     6:27.535      74406720 B   cxx   --   ---xx   flac  0.5533  phish1996-10-26s2t06.flac
    14:31.552     167337980 B   cxx   --   ---xx   flac  0.5887  phish1996-10-26s2t07.flac
     4:53.367      56326540 B   cxx   --   ---xx   flac  0.6026  phish1996-10-26s2t08.flac
   151:03.150    1740125476 B                            0.5749  (17 files)

Show Checksums
FFP
phish1996-10-26s1t01.flac:534c8840134a9e6baeec64f21016f2e7
phish1996-10-26s1t02.flac:ce7eaeaa8872292539a0cc9d5a647ce2
phish1996-10-26s1t03.flac:bf0b1658efdd41db9740e9bb18879d86
phish1996-10-26s1t04.flac:2bc8493bb9242639b702e2dc07277a17
phish1996-10-26s1t05.flac:750dae92071d1df1097c128aa17f6a55
phish1996-10-26s1t06.flac:03f0b6179b925d331970d2c18ccd5692
phish1996-10-26s1t07.flac:4964959f78e475479a2842939f12e4f7
phish1996-10-26s1t08.flac:474bd77314daee82daa384033fb514c6
phish1996-10-26s1t09.flac:fb6a3d6907db44d4d6cd80b97db00634
phish1996-10-26s2t01.flac:30063829134265e99a8b707066303778
phish1996-10-26s2t02.flac:9eff8f6c7895c4ecf83bc188ea37d28b
phish1996-10-26s2t03.flac:25cb4b711ea494cc4002a37feea541da
phish1996-10-26s2t04.flac:892232b774b3cece588dd50c753e5df2
phish1996-10-26s2t05.flac:4b08a4ec3636cdfe6187bcbee435970b
phish1996-10-26s2t06.flac:3293d03093ff7467300faefde90bca00
phish1996-10-26s2t07.flac:541608453e6272027035f64e1a7845f6
phish1996-10-26s2t08.flac:769df8f0772782d9dc4c89406da65113
FLAC-md5
019caa106cee1e8ab7ff7f0288fb91b5 *phish1996-10-26s1t01.flac
f4ad749564d4196315a8316f0fef2403 *phish1996-10-26s1t02.flac
cb0eb398ac9c8542f66e4b928ebdea07 *phish1996-10-26s1t03.flac
c58d9a1856c8dd4b24a489a26dd8ac6d *phish1996-10-26s1t04.flac
b9d23b8d84df60137e4cd089af9c361d *phish1996-10-26s1t05.flac
013aa2a3521240c2faaefee0ad1dd1f8 *phish1996-10-26s1t06.flac
4f54b57563571676a870d0a3733e3cc0 *phish1996-10-26s1t07.flac
04df3be52b7d8933a07885518ab71c58 *phish1996-10-26s1t08.flac
92bd9a2dfe42e42907e40bee00fac962 *phish1996-10-26s1t09.flac
1f176672ac25ab5faeabb345b919a188 *phish1996-10-26s2t01.flac
a798c647aa2ba455ef78218c48040fa6 *phish1996-10-26s2t02.flac
21976dd42c19d80d7d8b56ff3c496f30 *phish1996-10-26s2t03.flac
f87294992fc4891c51f34beb5d1fe2ba *phish1996-10-26s2t04.flac
9848329c796eac0e6b00ba257670adb4 *phish1996-10-26s2t05.flac
6ec4a5e8528f78bb85d247547508a235 *phish1996-10-26s2t06.flac
829aaa66690e4753f5f9ad310ae587f1 *phish1996-10-26s2t07.flac
94a7fdaa5fc038bf9279831baa8b4630 *phish1996-10-26s2t08.flac

Comments
Add Comment
Other Sources (comments)
Sony ECM959A > DAT; via... (2) unknown; CDR > EAC >... (0) AKG 463 > Oade > Casio;... (0) AKG 460b/ck61 > AKG b18 >... (0) Nakamichi CM300's/CP4's >... (1) flac16; AKG... (0) flac16 48kHz... (0)
Date User Comment