Browse Collections Artists Sources   Search Dates

Add Show    List Management    Help


Grateful Dead 05/12/81
Veterans' Memorial Coliseum, New Haven, CT
Comments Add Comment    Source Collectors    Add to Collection    Add to Want List    History
Source # 123259 Other Sources
Entered by Matt Vernon
Checksums ffp , flac-md5
Disc Counts 0 / 0
Media Size Compressed: 993.3 MB (1041553471 bytes)
Uncompressed: 1.66 GB (1782530024 bytes)
Date Circulated
Date Added
12/29/2012
12/30/2012
Source Summary flac16; Recording Info: SBD -> Master Cassette -> Cassette -> Dat -> CD; Transfer Info: CD -> Samplitude Professional v11.2.1 -> FLAC; All Transfers and Mastering By Charlie Miller 
  Archive
Source Information - Download Text | Download Zip
Grateful Dead - May 12, 1981
New Haven Coliseum - New Haven, CT

Recording Info:
SBD -> Master Cassette -> Cassette -> Dat -> CD

Transfer Info:
CD -> Samplitude Professional v11.2.1 -> FLAC
(3 Discs Audio / 1 DVD FLAC)

All Transfers and Mastering By Charlie Miller
[email protected]
December 29, 2012

Patch Info:
(3) Nakamichi CM300/CP1 -> Master Cassette -> FLAC (shnid=101925) supplies:
Big River (5:27 - 5:36)
Space (3:49 - 4:04)

Notes:
-- Set 2 is seamless
-- This is a remaster of shnid=1664
-- He's Gone dedicated to Bob Marley

Set 1:
d1t01 - Alabama Getaway ->
d1t02 - Greatest Story Ever Told
d1t03 - Peggy-O
d1t04 - Cassidy
d1t05 - It Must Have Been The Roses
d1t06 - Me And My Uncle ->
d1t07 - Big River
d1t08 - Althea ->
d1t09 - Little Red Rooster
d1t10 - China Cat Sunflower ->
d1t11 - I Know You Rider

Set 2:
d2t01 - Shakedown Street ->
d2t02 - Looks Like Rain
d2t03 - Ship Of Fools
d2t04 - Estimated Prophet ->
d2t05 - He's Gone ->
d2t06 - Drums ->
d3t01 - Space ->
d3t02 - The Other One ->
d3t03 - Wharf Rat ->
d3t04 - Sugar Magnolia

Encore:
d3t05 - Don't Ease Me In


SHNTOOL OUTPUT:
    length     expanded size    cdr  WAVE problems  fmt   ratio  filename
     5:04.72       53794988 B   ---   --   ---xx   flac  0.6244  gd81-05-12d1t01.flac
     4:08.14       43780172 B   ---   --   ---xx   flac  0.6064  gd81-05-12d1t02.flac
     6:42.25       70971644 B   ---   --   ---xx   flac  0.5836  gd81-05-12d1t03.flac
     5:14.64       55540172 B   ---   --   ---xx   flac  0.6041  gd81-05-12d1t04.flac
     7:05.14       75002972 B   ---   --   ---xx   flac  0.5608  gd81-05-12d1t05.flac
     2:54.02       30698348 B   ---   --   ---xx   flac  0.6298  gd81-05-12d1t06.flac
     5:50.09       61761212 B   ---   --   ---xx   flac  0.6214  gd81-05-12d1t07.flac
     8:21.12       88404668 B   ---   --   ---xx   flac  0.5849  gd81-05-12d1t08.flac
     9:19.16       98645276 B   ---   --   ---xx   flac  0.5889  gd81-05-12d1t09.flac
     5:50.18       61782380 B   ---   --   ---xx   flac  0.5865  gd81-05-12d1t10.flac
     5:55.00       62622044 B   ---   --   ---xx   flac  0.5994  gd81-05-12d1t11.flac
    12:43.56      134724956 B   ---   --   ---xx   flac  0.6086  gd81-05-12d2t01.flac
     9:09.68       97003580 B   ---   --   ---xx   flac  0.5641  gd81-05-12d2t02.flac
     7:42.73       81668540 B   ---   --   ---xx   flac  0.5701  gd81-05-12d2t03.flac
    11:20.22      120003788 B   ---   --   ---xx   flac  0.5930  gd81-05-12d2t04.flac
    17:56.67      189964028 B   ---   --   ---xx   flac  0.5717  gd81-05-12d2t05.flac
    10:52.48      115125740 B   ---   --   ---xx   flac  0.5314  gd81-05-12d2t06.flac
     4:05.30       43288604 B   ---   --   ---xx   flac  0.4966  gd81-05-12d3t01.flac
     6:42.15       70948124 B   ---   --   ---xx   flac  0.5897  gd81-05-12d3t02.flac
     9:47.33      103624460 B   ---   --   ---xx   flac  0.5746  gd81-05-12d3t03.flac
     8:14.69       87303932 B   ---   --   ---xx   flac  0.6186  gd81-05-12d3t04.flac
     3:23.26       35870396 B   ---   --   ---xx   flac  0.6128  gd81-05-12d3t05.flac
   168:25.03     1782530024 B                            0.5843  (22 files)


Show Checksums
ffp
gd81-05-12d1t01.flac:da7540b14fbec4e8a31853d3e56eb496
gd81-05-12d1t02.flac:ff34d2500dbd9e1ad51843f775ce6d6f
gd81-05-12d1t03.flac:dac8bdf3e6c5cb81f9b72c3dc64b0c91
gd81-05-12d1t04.flac:044bb89799daea2c4f79811cef0a2ced
gd81-05-12d1t05.flac:58f86eae4b6ec54ff471db891ddd2207
gd81-05-12d1t06.flac:adae061b4f98fc4afa8b6c0c0633e245
gd81-05-12d1t07.flac:37a225bf5646b3441f1c4ee7daab9d7e
gd81-05-12d1t08.flac:7046570672a4fa7e4024481a54d19527
gd81-05-12d1t09.flac:60476ae77fbb174f6bf979e808327421
gd81-05-12d1t10.flac:38db1b4beb4924adf65114e7c198c100
gd81-05-12d1t11.flac:d540bad9a2cf1b8e365db3b1db9403f4
gd81-05-12d2t01.flac:42f55d8508ae4759bcb6170649fc857d
gd81-05-12d2t02.flac:fadc1bcf7d8bfcbb9b6e4300cccb7671
gd81-05-12d2t03.flac:e88abe49f6655ff70f29d74a4ca0c3e7
gd81-05-12d2t04.flac:d68fe26c12fbc7a225329f3716059722
gd81-05-12d2t05.flac:615069d6d71d3bd260180c5999c8a282
gd81-05-12d2t06.flac:f0bff53d2757b5f43be27e7a20432191
gd81-05-12d3t01.flac:9ff858a84ed9d697886cc9408ab193ae
gd81-05-12d3t02.flac:3594feee5c809e92754ab96a004a801d
gd81-05-12d3t03.flac:6d9ab4f93e1343ecea55399ee9fc934c
gd81-05-12d3t04.flac:0e65511dda02b5d4c33667a91de44f39
gd81-05-12d3t05.flac:1f8307f35d80239334b0ee39bcec5a67
flac-md5
7ab4e5338a2bda72dfc3cc5e0470b488 *gd81-05-12d1t01.flac
29cc4714d971c606d2f2b0b104333cf4 *gd81-05-12d1t02.flac
ddeee80c3dfde97d6d7396f42318edaa *gd81-05-12d1t03.flac
98a0bf6f5f064b29db411a834727bcdb *gd81-05-12d1t04.flac
1997ac913ba6c7eb2863e6af23f62621 *gd81-05-12d1t05.flac
38e92dcc13783d4ffab09aa89cafb0a0 *gd81-05-12d1t06.flac
f180123b96f171f975a2ea064d90465a *gd81-05-12d1t07.flac
faeca588f144facdced3bc8c9e2047eb *gd81-05-12d1t08.flac
4ad9a1b74e6f51fd63d65f52b9c70432 *gd81-05-12d1t09.flac
9494b74a0f159a2308425d763d7db393 *gd81-05-12d1t10.flac
7b3dfe55bd86400cebb8eb7d358f0967 *gd81-05-12d1t11.flac
26e85a70da41587538b9a8c1186f756e *gd81-05-12d2t01.flac
62bb104737c0c4a948d1234e197e0a0a *gd81-05-12d2t02.flac
8c0c77055591fc8f594030e2eddbddc5 *gd81-05-12d2t03.flac
c91efe997b92db69cba37638db065778 *gd81-05-12d2t04.flac
68aeaecba1e143cf0b9bc26b37ca743f *gd81-05-12d2t05.flac
15e18aedbfa14cf0add84722f848418e *gd81-05-12d2t06.flac
dc77e668747cbf45020c696e16c79b5f *gd81-05-12d3t01.flac
11da4dc3eebe7f17033d91af23a48443 *gd81-05-12d3t02.flac
a521fe7de949cb28323d42531bc4f9e5 *gd81-05-12d3t03.flac
eaeacf524beb97f81340194f15528822 *gd81-05-12d3t04.flac
579f57c623298b5553f258c16ce1e875 *gd81-05-12d3t05.flac

Comments
Add Comment
Other Sources (comments)
SBD> Master Cassette>... (9) essentially same as (3) flac16; Set 1... (0) flac16; Matrix by... (1) flac24; AUD: 3x... (1) flac16; AUD: 3x... (1) flac16; Updated... (1) flac16; source: aud... (0) flac24; source: aud... (0) flac16; Source Info:... (0) flac24; Source Info:... (0)
Date User Comment