Browse Collections Artists Sources   Search Dates Setlists

Add Show    List Management    Forums    Help


Grateful Dead 02/02/69
Labor Temple, Minneapolis, MN
Comments Add Comment    Source Collectors    Add to Collection    Add to Want List    History
Source # 123283 Other Sources
Entered by Matt Vernon
Checksums ffp , flac-md5
Disc Counts 0 / 0
Media Size Compressed: 497.26 MB (521415130 bytes)
Uncompressed: 866.43 MB (908516756 bytes)
Date Circulated
Date Added
01/01/2013
01/01/2013
Source Summary flac16; Recording Info: SBD -> Cassette Master -> Cassette -> Dat (44.1k); Transfer Info: Dat (Tascam DA-20) -> Tascam SS-R05 -> Adobe Audition v3.0 -> Samplitude Professional v11.2.1 -> FLAC; All Transfers and Mastering By Charlie Miller 
  Archive
Source Information - Download Text | Download Zip
Grateful Dead - February 2, 1969
Labor Temple - Minneapolis, MN

Recording Info:
SBD -> Cassette Master -> Cassette -> Dat (44.1k)

Transfer Info:
Dat (Tascam DA-20) -> Tascam SS-R05 -> Adobe Audition v3.0 ->
Samplitude Professional v11.2.1 -> FLAC
(2 Discs Audio / 1 Disc FLAC)

All Transfers and Mastering By Charlie Miller
charliemiller87@earthlink.net
January 1, 2013

Notes:
-- Disc change is seamless
-- This is far from perfect but it's a lot better than it was
-- Louie Louie tease following Good Morning Little Schoolgirl
-- Bad cut from tape flip between The Eleven and Death Don't Have No Mercy
-- Thanks to Joe B. Jones for his help with the pitch correction

Setlist:
d1t01 - Good Morning Little Schoolgirl
d1t02 - Dark Star ->
d1t03 - St. Stephen ->
d1t04 - The Eleven ->
d1t05 - Death Don't Have No Mercy
d2t01 - That's It For The Other One ->
d2t02 - Turn On Your Lovelight


SHNTOOL OUTPUT:
    length     expanded size    cdr  WAVE problems  fmt   ratio  filename
    12:21.01      130714796 B   ---   --   ---xx   flac  0.5654  gd69-02-02d1t01.flac
    15:37.48      165399740 B   ---   --   ---xx   flac  0.5798  gd69-02-02d1t02.flac
     5:22.33       56878460 B   ---   --   ---xx   flac  0.5696  gd69-02-02d1t03.flac
     9:48.12      103751468 B   ---   --   ---xx   flac  0.5744  gd69-02-02d1t04.flac
     6:41.03       70743500 B   ---   --   ---xx   flac  0.5734  gd69-02-02d1t05.flac
    17:08.74      181513292 B   ---   --   ---xx   flac  0.5824  gd69-02-02d2t01.flac
    18:51.03      199515500 B   ---   --   ---xx   flac  0.5681  gd69-02-02d2t02.flac
    85:50.24      908516756 B                            0.5739  (7 files)


Show Checksums
ffp
gd69-02-02d1t01.flac:10690eb89101abc16d4a1729d254f06c
gd69-02-02d1t02.flac:cddd022c3cbefa4c95b3700ec9104c91
gd69-02-02d1t03.flac:cf8056b4247ec972c564690fa99c3625
gd69-02-02d1t04.flac:36c6e6c33ccc971ef987604053abfe4e
gd69-02-02d1t05.flac:bf84c0a73465cdd16ec6a8658966f16a
gd69-02-02d2t01.flac:1d2f5086550c30c580c7582c0ed374de
gd69-02-02d2t02.flac:23c7a31ac5e713c4567a18e7a9fcd1b0
flac-md5
d4931e5bffbc553d6bf3bc42e5c14ded *gd69-02-02d1t01.flac
90a6dd3dd76ddd3751b2215d1308e914 *gd69-02-02d1t02.flac
a4eaaba40523fa0808f19a73925f058d *gd69-02-02d1t03.flac
c1d85199e34d4d4ce45116e187601727 *gd69-02-02d1t04.flac
c5c67a4ca82f1d813bdc4c7a5d63d0dd *gd69-02-02d1t05.flac
5caf19243688514631df085ae19a26be *gd69-02-02d2t01.flac
7648348e2b4f6418dfcab3f32273be29 *gd69-02-02d2t02.flac

Comments
Add Comment
Other Sources (comments)
SBD>MR>?>D>CD; via David... (1)
Date User Comment