Browse Collections Artists Sources   Search Dates

Add Show    List Management    Help


Phish 07/16/99
PNC Bank Arts Center, Holmdel, NJ
Comments Add Comment    Source Collectors    Add to Collection    Add to Want List    History
Source # 123291 Other Sources
Entered by Jason Sobel
Checksums FFP , FLAC-md5
Disc Counts 0 / 0
Media Size Compressed: 873.53 MB (915961037 bytes)
Date Circulated
Date Added
01/01/2013
01/01/2013
Source Summary flac16; (FOB) Schoeps MK4V > Schoeps VMS021B > Sony SBM-1 > DAT (44.1k); Tascam DA-20 > Tascam SS-R05 > Samplitude Professional v11.2.1 > FLAC; Transferred by Charlie Miller 
Source Information - Download Text | Download Zip
Phish - July 16, 1999
PNC Bank Arts Center - Holmdel, NJ

Recording Info:
(FOB) Schoeps MK4V -> Schoeps VMS021B -> Sony SBM-1 -> Dat (44.1k)

Transfer Info:
Dat (Tascam DA-20) -> Tascam SS-R05 -> Samplitude Professional v11.2.1 -> FLAC
(2 Discs Audio / 1 DVD FLAC)

All Transfers and Mastering By Charlie Miller
[email protected]
January 1, 2013

Notes:
-- Move encore to end of 1st Set to fit show on two discs

Set 1:
s1t01 - Sample In A Jar
s1t02 - Beauty Of My Dreams
s1t03 - Dog Stole Things
s1t04 - Limb By Limb
s1t05 - Billy Breathes
s1t06 - Vultures
s1t07 - Get Back On The Train
s1t08 - Maze
s1t09 - Cavern

Set 2:
s2t01 - Also Sprach Zarathustra
s2t02 - Mike's Song ->
s2t03 - I Am Hydrogen ->
s2t04 - Weekapaug Groove ->
s2t05 - Simple
s2t06 - Guyute
s2t07 - Loving Cup ->
s2t08 - Golgi Apparatus

Encore:
s2t09 - Born To Run


SHNTOOL OUTPUT:
    length     expanded size    cdr  WAVE problems  fmt   ratio  filename
     5:28.17       57899228 B   ---   --   ---xx   flac  0.6002  phish1999-07-16s1t01.flac
     3:15.23       34452140 B   ---   --   ---xx   flac  0.5771  phish1999-07-16s1t02.flac
     5:06.21       54027836 B   ---   --   ---xx   flac  0.5732  phish1999-07-16s1t03.flac
    10:28.71      110946236 B   ---   --   ---xx   flac  0.5874  phish1999-07-16s1t04.flac
     7:59.18       84537980 B   ---   --   ---xx   flac  0.5328  phish1999-07-16s1t05.flac
     7:35.50       80379644 B   ---   --   ---xx   flac  0.5891  phish1999-07-16s1t06.flac
     7:18.06       77277356 B   ---   --   ---xx   flac  0.5314  phish1999-07-16s1t07.flac
    14:06.49      149349692 B   ---   --   ---xx   flac  0.5823  phish1999-07-16s1t08.flac
     5:22.43       56901980 B   ---   --   ---xx   flac  0.6038  phish1999-07-16s1t09.flac
    13:15.69      140400332 B   ---   --   ---xx   flac  0.5650  phish1999-07-16s2t01.flac
    14:27.62      153084668 B   ---   --   ---xx   flac  0.5722  phish1999-07-16s2t02.flac
     3:50.04       40581452 B   ---   --   ---xx   flac  0.5329  phish1999-07-16s2t03.flac
    10:35.47      112124588 B   ---   --   ---xx   flac  0.5848  phish1999-07-16s2t04.flac
     8:28.30       89681804 B   ---   --   ---xx   flac  0.5831  phish1999-07-16s2t05.flac
    10:41.41      113168876 B   ---   --   ---xx   flac  0.5754  phish1999-07-16s2t06.flac
     7:24.03       78328700 B   ---   --   ---xx   flac  0.6170  phish1999-07-16s2t07.flac
     8:59.62       95225468 B   ---   --   ---xx   flac  0.5469  phish1999-07-16s2t08.flac
     6:05.09       64407212 B   ---   --   ---xx   flac  0.5968  phish1999-07-16s2t09.flac
   150:29.25     1592775192 B                            0.5751  (18 files)

Show Checksums
FFP
phish1999-07-16s1t01.flac:b29a7c67fee7a8c0dd8fb36291f4bd45
phish1999-07-16s1t02.flac:033d195849310d26dff27c9d9eaa3dfe
phish1999-07-16s1t03.flac:85194a983be7936127c701def5716a88
phish1999-07-16s1t04.flac:50210b2a93f3b5f8af95fd6959d31daa
phish1999-07-16s1t05.flac:a64afd9213e759634d0657e3f6aedfb4
phish1999-07-16s1t06.flac:c8b2eb14a0ccdf5769f24c555d24d0c7
phish1999-07-16s1t07.flac:cdeb85de79b4403da8ff4ca7b8cbe8cf
phish1999-07-16s1t08.flac:3bb4a769912b32d80acd9a3fa94b8b30
phish1999-07-16s1t09.flac:d2a9dbbc505665f037dd3c8c603ff5ff
phish1999-07-16s2t01.flac:3f4ce9d8c60293555c53872056ea3f41
phish1999-07-16s2t02.flac:6461d3b50863e4e7cda01dd174c42321
phish1999-07-16s2t03.flac:fd96664a0984eb2bfb513fe8be4a52d0
phish1999-07-16s2t04.flac:a1847614346d2812f2b78d94383dfe81
phish1999-07-16s2t05.flac:adffe0e2fdc3b39118a23e1117970148
phish1999-07-16s2t06.flac:554257ffc92402d981f6b50b54e2c93c
phish1999-07-16s2t07.flac:967951d08546702d5c2268cce78c0ff1
phish1999-07-16s2t08.flac:677aa61d56e781f2971074a28cf902b1
phish1999-07-16s2t09.flac:111db85cc921bd7b87e9a48249248e0e
FLAC-md5
1c1ba4f4609f01fd20c602355d1bfcef *phish1999-07-16s1t01.flac
4425cc279ed6c7e83c42a66cbea3e3ed *phish1999-07-16s1t02.flac
dd93e96429bbdeeb6457e3ea50920751 *phish1999-07-16s1t03.flac
46ca45ad999238608495fb6d78359fb3 *phish1999-07-16s1t04.flac
937eaca65ff74aab2c89e681d4051a8c *phish1999-07-16s1t05.flac
787a0ac02635c483d2d7451655f44c4e *phish1999-07-16s1t06.flac
52e8d82a189900ae8f5e3cacde02ea4f *phish1999-07-16s1t07.flac
416c27521b5a58dd53a0eda693ba90ed *phish1999-07-16s1t08.flac
4f5b4d06757c550b9576db014551cd9c *phish1999-07-16s1t09.flac
7fc5403ccf17d86027ccc9cca44bd616 *phish1999-07-16s2t01.flac
9cf7fb925542f75b8c3886f5edd7fab4 *phish1999-07-16s2t02.flac
b6cd4ec2cc655ec59f451dfa6b967c54 *phish1999-07-16s2t03.flac
cedd8f5c038d4f2869ca664a0f8f969c *phish1999-07-16s2t04.flac
9187cc48badc7f2da5d42409bbff7434 *phish1999-07-16s2t05.flac
44e86619cc21cf30ec1b14a9880e9cd1 *phish1999-07-16s2t06.flac
1b0cd07b7f9d9b28d1d61f0900ab63b4 *phish1999-07-16s2t07.flac
059db64dfb0f0fbab643158d4d62ba34 *phish1999-07-16s2t08.flac
0d83e502249d2c718714062837b0c6ed *phish1999-07-16s2t09.flac

Comments
Add Comment
Other Sources (comments)
Set I:  Schoeps CMC6... (0) AKG 480 + ck63 > Graham... (4) Schoeps CMC6/mk4v (split) >... (0) Schoeps cmc6/mk41 > Lunatec... (0) Schoeps CMC6/mk41 > Apogee... (0) flac16; Microtech... (0) flac16; Schoeps... (0) flac16 48kHz... (0)
Date User Comment
02/02/2013 jasonsobel taped by Pepper