Browse Collections Artists Sources   Search Dates Setlists

Add Show    List Management    Forums    Help


Grateful Dead 03/29/69
Ice Palace, Las Vegas, NV
Comments Add Comment    Source Collectors    Add to Collection    Add to Want List    History
Source # 123467 Other Sources
Entered by Matt Vernon
Checksums ffp , flac-md5
Disc Counts 0 / 0
Media Size Compressed: 380.53 MB (399013167 bytes)
Uncompressed: 784.88 MB (823007444 bytes)
Date Circulated
Date Added
01/15/2013
01/16/2013
Source Summary flac16; Recording Info: SBD -> Master Reel -> Cassette -> Dat; Transfer Info: Dat (Tascam DA-20) -> Tascam SS-R05 -> Samplitude Professional v11.2.1 -> FLAC; All Transfers and Mastering By Charlie Miller 
  Archive
Source Information - Download Text | Download Zip
Grateful Dead - March 29, 1969
Ice Palace - Las Vegas, NV

Recording Info:
SBD -> Master Reel -> Cassette -> Dat

Transfer Info:
Dat (Tascam DA-20) -> Tascam SS-R05 -> Samplitude Professional v11.2.1 -> FLAC
(1 Disc Audio / 1 Disc FLAC)

All Transfers and Mastering By Charlie Miller
charliemiller87@earthlink.net
January 15, 2013

Setlist:
d1t01 - Morning Dew
d1t02 - Good Morning Little Schoolgirl
d1t03 - Doin' That Rag
d1t04 - Dark Star ->
d1t05 - St. Stephen ->
d1t06 - The Eleven ->
d1t07 - Turn On Your Lovelight


SHNTOOL OUTPUT:
    length     expanded size    cdr  WAVE problems  fmt   ratio  filename
     9:56.05      105146204 B   ---   --   ---xx   flac  0.4747  gd69-03-29d1t01.flac
     9:37.19      101827532 B   ---   --   ---xx   flac  0.4980  gd69-03-29d1t02.flac
     7:55.08       83808860 B   ---   --   ---xx   flac  0.4868  gd69-03-29d1t03.flac
    15:04.27      159529148 B   ---   --   ---xx   flac  0.4714  gd69-03-29d1t04.flac
     5:35.39       59185772 B   ---   --   ---xx   flac  0.4786  gd69-03-29d1t05.flac
    11:48.06      124905356 B   ---   --   ---xx   flac  0.5094  gd69-03-29d1t06.flac
    17:49.14      188604572 B   ---   --   ---xx   flac  0.4795  gd69-03-29d1t07.flac
    77:45.43      823007444 B                            0.4848  (7 files)


Show Checksums
ffp
gd69-03-29d1t01.flac:b4d9b0bb641c4413a76bc8620e6efdad
gd69-03-29d1t02.flac:03d2ca291a1bedea110fa16e4776a3b7
gd69-03-29d1t03.flac:168612da2f88d2f04be65d9cc66349e2
gd69-03-29d1t04.flac:00a788d19f0dc5838cfea916e25fcddb
gd69-03-29d1t05.flac:e1e827befac6e5149bc27ea889e5b2a0
gd69-03-29d1t06.flac:28e8c45f0422b3c26e4810c3b09f3d25
gd69-03-29d1t07.flac:d3749e95d8532686128500a5eb66efb5
flac-md5
daf7d82a510d615eea39ce994197247d *gd69-03-29d1t01.flac
602eb6394e4cbd66cfdf19730dea6de7 *gd69-03-29d1t02.flac
eb40df0fa655f8ea7c2e2b281bd05b93 *gd69-03-29d1t03.flac
94645ef1db9d250b8b8cae661e2120c6 *gd69-03-29d1t04.flac
28a57d8db8252877f90af7585245f789 *gd69-03-29d1t05.flac
97d713aa3b715bbc07bfb9451c08d06b *gd69-03-29d1t06.flac
a4a3000264c1e1d65313e2df1e78bf23 *gd69-03-29d1t07.flac

Comments
Add Comment
Other Sources (comments)
SBD> ?> BOOT CD> CDR; EAC>... (0) Fix for Charlie Miller... (0) flac16/48kHz;... (0)
Date User Comment