Browse Collections Artists Sources   Search Dates

Add Show    List Management    Help


Phish 07/15/99
PNC Bank Arts Center, Holmdel, NJ
Comments Add Comment    Source Collectors    Add to Collection    Add to Want List    History
Source # 123471 Other Sources
Entered by Jason Sobel
Checksums FFP , FLAC-md5
Disc Counts 0 / 0
Media Size Compressed: 983.1 MB (1030859306 bytes)
Date Circulated
Date Added
01/16/2013
01/16/2013
Source Summary flac16; B+K 4011 > Lunatec V2 > Apogee AD500E > Dat (44.1k); Tascam DA-20 > Tascam SS-R05 > Samplitude Professional v11.2.1 > FLAC; Taped by Ron Dalton; Transferred by Charlie Miller 
Source Information - Download Text | Download Zip
Phish - July 15, 1999
PNC Bank Arts Center - Holmdel, NJ

Recording Info:
B+K 4011 -> Lunatec V2 -> Apogee AD500E -> Dat (44.1k)

Transfer Info:
Dat (Tascam DA-20) -> Tascam SS-R05 -> Samplitude Professional v11.2.1 -> FLAC
(3 Discs Audio / 1 DVD FLAC)

All Transfers and Mastering By Charlie Miller
[email protected]
January 16, 2013

Notes:
-- Recorded by Ron Dalton
-- All disc changes are seamless
-- Split Open And Melt began as 2001 and was unfinished

Set 1:
d1t01 - Punch You In The Eye ->
d1t02 - Ghost ->
d1t03 - Farmhouse
d1t04 - Horn ->
d1t05 - Poor Heart ->
d1t06 - Axilla ->
d1t07 - Theme From The Bottom
d1t08 - I Didn't Know
d1t09 - The Sloth
d2t01 - You Enjoy Myself

Set 2:
d2t02 - Meatstick ->
d2t03 - Split Open And Melt ->
d2t04 - Kung ->
d3t01 - Bouncing Around The Room
d3t02 - Chalk Dust Torture

Encore:
d3t03 - Brian And Robert
d3t04 - Frankenstein


SHNTOOL OUTPUT:
    length     expanded size    cdr  WAVE problems  fmt   ratio  filename
     9:14.05       97737404 B   ---   --   ---xx   flac  0.5440  phish1999-07-15d1t01.flac
     3:50.41       40668476 B   ---   --   ---xx   flac  0.5409  phish1999-07-15d1t02.flac
    12:07.52      128365148 B   ---   --   ---xx   flac  0.5659  phish1999-07-15d1t03.flac
    10:28.21      110828636 B   ---   --   ---xx   flac  0.5666  phish1999-07-15d1t04.flac
     4:00.54       42463052 B   ---   --   ---xx   flac  0.5487  phish1999-07-15d1t05.flac
     6:31.73       69144140 B   ---   --   ---xx   flac  0.5853  phish1999-07-15d1t06.flac
    13:30.17      142924028 B   ---   --   ---xx   flac  0.5518  phish1999-07-15d1t07.flac
     5:11.11       54886316 B   ---   --   ---xx   flac  0.5517  phish1999-07-15d1t08.flac
     4:19.64       45838172 B   ---   --   ---xx   flac  0.5752  phish1999-07-15d1t09.flac
    25:03.50      265246844 B   ---   --   ---xx   flac  0.5320  phish1999-07-15d2t01.flac
    20:47.32      220046108 B   ---   --   ---xx   flac  0.5397  phish1999-07-15d2t02.flac
    10:21.57      109678508 B   ---   --   ---xx   flac  0.5406  phish1999-07-15d2t03.flac
    20:09.48      213380540 B   ---   --   ---xx   flac  0.5344  phish1999-07-15d2t04.flac
     3:41.22       39036188 B   ---   --   ---xx   flac  0.5618  phish1999-07-15d3t01.flac
    16:52.24      178573292 B   ---   --   ---xx   flac  0.5769  phish1999-07-15d3t02.flac
     5:21.57       56758508 B   ---   --   ---xx   flac  0.5034  phish1999-07-15d3t03.flac
     5:37.51       59566796 B   ---   --   ---xx   flac  0.5752  phish1999-07-15d3t04.flac
   177:10.04     1875142156 B                            0.5497  (17 files)


Show Checksums
FFP
phish1999-07-15d1t01.flac:6423d5a87d1b3a4136ad33b5497c9580
phish1999-07-15d1t02.flac:03aad2fd2bcb7ca84372925f4fee1c15
phish1999-07-15d1t03.flac:59675f46db8f2e14ef2950b6d506bd4d
phish1999-07-15d1t04.flac:f951d05d63b80c07e2801c3507074027
phish1999-07-15d1t05.flac:8888a85ab2501488db0058ce0798c876
phish1999-07-15d1t06.flac:b7576f4ee91f9f09cf6f099861988095
phish1999-07-15d1t07.flac:e3b419a59d9390e6a836208deb81782a
phish1999-07-15d1t08.flac:41673b25b09253b99befc17cab3bc608
phish1999-07-15d1t09.flac:df9b2a83ff17313c6b0d21d5f7286229
phish1999-07-15d2t01.flac:c80e22fa149d28856b0df8547b662107
phish1999-07-15d2t02.flac:f9ac7535847a216bb79851c6f0adbd12
phish1999-07-15d2t03.flac:264e16d6f0569a5e6985850939ebd3ec
phish1999-07-15d2t04.flac:dfc64f9770cc8151c8a3ab54a0f2295c
phish1999-07-15d3t01.flac:f8c1e0b37938c9352c991ad7d5e72d28
phish1999-07-15d3t02.flac:4a8f049fe43b49b04e39ced4cf63f419
phish1999-07-15d3t03.flac:ad3344139cb39e80859535e81be0381b
phish1999-07-15d3t04.flac:8e442528a61e8163eb8cb08328fde34f
FLAC-md5
354ae3ae2842d1b4a9d367834e180706 *phish1999-07-15d1t01.flac
29823c0cbf16a33c73e1fdebeccabc1c *phish1999-07-15d1t02.flac
a20a118149e0867e2c3b17dc34db2ec7 *phish1999-07-15d1t03.flac
7f1375d62ed7c52e043a5cd2b0f01d34 *phish1999-07-15d1t04.flac
38505a9b21d9a2c697318d427174799c *phish1999-07-15d1t05.flac
67337dee77d30ca5afd01b5007428afa *phish1999-07-15d1t06.flac
f2d1c18f2b90bea3bd8c6e2be6cd659f *phish1999-07-15d1t07.flac
b0187409f30e4e9e9059e8ca58051266 *phish1999-07-15d1t08.flac
9326bb8825258a474b97e0e57ad5bf5b *phish1999-07-15d1t09.flac
79cf29d67d7059d9e8c50726fa930eb1 *phish1999-07-15d2t01.flac
e2883015e35e7fc94080b195b5f611a5 *phish1999-07-15d2t02.flac
52b01625e9c61381f435c4b6545d5ccf *phish1999-07-15d2t03.flac
38906ac3bebf9e72fc5340d49ef27897 *phish1999-07-15d2t04.flac
9fcb510c95e9bbad0b2de687b9171a0b *phish1999-07-15d3t01.flac
41636f3afa7e938dab642a7fbf836e6c *phish1999-07-15d3t02.flac
96771e05e0355cb9d036ce8f45afa0f9 *phish1999-07-15d3t03.flac
eb23c56f463cdcd45ecae47e08f1cb1d *phish1999-07-15d3t04.flac

Comments
Add Comment
Other Sources (comments)
Schoeps M222 tubes/MK4V... (0) AKG 480 + ck63 > Graham... (0) Schoeps CMC6/mk41 > Apogee... (0) FOB Schoeps mk21 > kc5 >... (0) Senheiser mics (model not... (0) Schoeps cmc6/mk41 > Lunatec... (0) Schoeps CMC6/mk41 > Apogee... (0) Neumann KM140's -> V2 ->... (0) flac16 48kHz... (0)
Date User Comment
08/16/2013 charliemiller Apparently I screwed up the tracking. Sorry, still learning their music.