Browse Collections Artists Sources   Search Dates

Add Show    List Management    Help


Garcia 02/09/81
Ocean State Theater, Providence, RI
Comments Add Comment    Source Collectors    Add to Collection    Add to Want List    History
Source # 123532 Other Sources
Entered by Joe Jupille
Checksums flac-md5 , ffp
Disc Counts 0 / 0
Media Size Compressed: 932.95 MB (978264983 bytes)
Uncompressed: 1.44 GB (1540981668 bytes)
Date Circulated
Date Added
01/18/2013
01/20/2013
Source Summary JGB; flac1644; Frank Streeter's AKG D330BT -> Cassette Master (Sony TC-D5M/Maxell MX90); Transfer Info: Cassette Master (Sony TC-K677ES) -> Sound Devices 744T (24bit/48k) -> Adobe Audition v3.0 -> Samplitude Professional v11.2.1 -> FLAC/16; All Transfers and Mastering By Charlie Miller. 
Source Information - Download Text | Download Zip
Jerry Garcia Band - February 9, 1981
Ocean State Theatre - Providence, RI

Recording Info:
AKG D330BT -> Cassette Master (Sony TC-D5M/Maxell MX90)

Transfer Info:
Cassette Master (Sony TC-K677ES) -> Sound Devices 744T (24bit/48k) ->
Adobe Audition v3.0 -> Samplitude Professional v11.2.1 -> FLAC/16
(2 Discs Audio / 1 DVD FLAC)

All Transfers and Mastering By Charlie Miller
[email protected]
January 18, 2013

Notes:
-- Thanks to Frank Streeter for lending me his masters
-- Thanks to Joe B. Jones for his help with the pitch correction

Set 1:
d1t01 - Tuning
d1t02 - Sugaree
d1t03 - Love In The Afternoon
d1t04 - That's What Love Will Make You Do
d1t05 - Simple Twist Of Fate
d1t06 - Sitting Here In Limbo
d1t07 - Tangled Up In Blue

Set 2:
d2t01 - Tuning
d2t02 - I'll Take A Melody
d2t03 - How Sweet It Is (To Be Loved By You)
d2t04 - Harder They Come
d2t05 - Mission In The Rain
d2t06 - Dear Prudence
d2t07 - Deal ->
d2t08 - Midnight Moonlight


SHNTOOL OUTPUT:
    length     expanded size    cdr  WAVE problems  fmt   ratio  filename
     1:03.10       11136764 B   ---   --   ---xx   flac  0.5968  jgb1981-02-09d1t01.flac
    12:40.28      134129900 B   ---   --   ---xx   flac  0.6405  jgb1981-02-09d1t02.flac
     9:58.26      105548396 B   ---   --   ---xx   flac  0.6338  jgb1981-02-09d1t03.flac
    10:15.33      108563660 B   ---   --   ---xx   flac  0.6639  jgb1981-02-09d1t04.flac
    17:39.60      186948764 B   ---   --   ---xx   flac  0.6091  jgb1981-02-09d1t05.flac
    11:58.28      126721100 B   ---   --   ---xx   flac  0.6342  jgb1981-02-09d1t06.flac
    11:12.61      118684316 B   ---   --   ---xx   flac  0.6552  jgb1981-02-09d1t07.flac
     1:00.31       10656956 B   ---   --   ---xx   flac  0.5663  jgb1981-02-09d2t01.flac
    13:13.07      139901708 B   ---   --   ---xx   flac  0.6232  jgb1981-02-09d2t02.flac
     9:02.63       95757020 B   ---   --   ---xx   flac  0.6416  jgb1981-02-09d2t03.flac
    10:54.28      115431500 B   ---   --   ---xx   flac  0.6396  jgb1981-02-09d2t04.flac
    10:57.19      115939532 B   ---   --   ---xx   flac  0.6327  jgb1981-02-09d2t05.flac
    12:08.56      128550956 B   ---   --   ---xx   flac  0.6265  jgb1981-02-09d2t06.flac
     6:32.59       69287612 B   ---   --   ---xx   flac  0.6460  jgb1981-02-09d2t07.flac
     6:57.70       73723484 B   ---   --   ---xx   flac  0.6454  jgb1981-02-09d2t08.flac
   145:35.54     1540981668 B                            0.6348  (15 files)


Show Checksums
flac-md5
12a4b99cd8b1fb3524426d2b2249cdad *jgb1981-02-09d1t01.flac
e324acad05c7216b1e22ff4d214b1e3c *jgb1981-02-09d1t02.flac
a568029755c8db5a86ce686f842e4673 *jgb1981-02-09d1t03.flac
3018e5c834cde811f8ae3114c3c85641 *jgb1981-02-09d1t04.flac
d6d565beb43d6350d95b3f99e3d4f8ed *jgb1981-02-09d1t05.flac
c91dad72abc3eb52b4a81646486ce929 *jgb1981-02-09d1t06.flac
bfc677782fac2d3bfe8987bebc0df713 *jgb1981-02-09d1t07.flac
993847ba030a38a0add04fc847806857 *jgb1981-02-09d2t01.flac
0560ffa0bc308c50ceeee824aff88eb3 *jgb1981-02-09d2t02.flac
f72a23b5bb91c33c6a3e0b33ddbc6120 *jgb1981-02-09d2t03.flac
f0b6eb7dd69e3cf815d4c05032c91076 *jgb1981-02-09d2t04.flac
969278e1a3889cd9d2b90f88be30374c *jgb1981-02-09d2t05.flac
40e10fe4d8cf6eaea4d6f8f308ac38ba *jgb1981-02-09d2t06.flac
fabbf44c24482d0a6c384498721b4d77 *jgb1981-02-09d2t07.flac
29426679722109a3b3e5abd1e49a383a *jgb1981-02-09d2t08.flac
ffp
jgb1981-02-09d1t01.flac:dd9f22998b3a429de58c8865aee3aea0
jgb1981-02-09d1t02.flac:4c4baf85c2038bc13a36da76f3319f21
jgb1981-02-09d1t03.flac:fa48fea3d849794d24e528d292e405cf
jgb1981-02-09d1t04.flac:f475ffc2e8ebcd77290cd81b3005605b
jgb1981-02-09d1t05.flac:21d9ffdefb4f0f6796927b40a27da5a3
jgb1981-02-09d1t06.flac:2ac37fe5e610fe172027d1b24cad86ae
jgb1981-02-09d1t07.flac:015e8661704b124e22e3846471cf657b
jgb1981-02-09d2t01.flac:319eb20093be9c2be240bd6700d4cdd2
jgb1981-02-09d2t02.flac:0a7e51c9ed2b5081761ed3c392048bac
jgb1981-02-09d2t03.flac:1dcc212f5925012ba44225d7479b2386
jgb1981-02-09d2t04.flac:4f0cabebb15b29d63b9982fdb3ddaf04
jgb1981-02-09d2t05.flac:b87dab9d7350b8d46437a3bc6fab727f
jgb1981-02-09d2t06.flac:4cf3426d2f8f9f4b3ac1e0120579ea25
jgb1981-02-09d2t07.flac:885b67df1672343728df6bcb7dd33757
jgb1981-02-09d2t08.flac:1bf58d95b684fad2dceb9301a36590c4

Comments
Add Comment
Other Sources (comments)
Jerry Garcia Band: MAC... (1) JGB: Jim Vita's FOB... (0) JGB, flac24: 2x... (0) JGB flac16: 2x... (0)
Date User Comment