Browse Collections Artists Sources   Search Dates

Add Show    List Management    Help


Garcia 02/07/81
Orpheum Theater, Boston, MA
Comments Add Comment    Source Collectors    Add to Collection    Add to Want List    History
Source # 123543 Other Sources
Entered by Joe Jupille
Checksums ffp , flac-md5
Disc Counts 0 / 0
Media Size Compressed: 1.06 GB (1134214618 bytes)
Uncompressed: 1.66 GB (1781567880 bytes)
Date Circulated
Date Added
01/20/2013
01/21/2013
Source Summary JGB; Early and Late Shows; flac1644; Recording Info: Frank Streeter's AKG D330BT -> Cassette Master (Sony TC-D5M/Maxell MX90); Transfer Info: Cassette Master (Sony TC-K677ES) -> Sound Devices 744T (24bit/48k) -> Adobe Audition v3.0 -> Samplitude Professional v11.2.1 -> FLAC/16; All Transfers and Mastering By Charlie Miller. 
Source Information - Download Text | Download Zip
Jerry Garcia Band - February 7, 1981
Orpheum Theatre - Boston, MA

Recording Info:
AKG D330BT -> Cassette Master (Sony TC-D5M/Maxell MX90)

Transfer Info:
Cassette Master (Sony TC-K677ES) -> Sound Devices 744T (24bit/48k) ->
Adobe Audition v3.0 -> Samplitude Professional v11.2.1 -> FLAC/16
(3 Discs Audio / 1 DVD FLAC)

All Transfers and Mastering By Charlie Miller
[email protected]
January 20, 2013

Notes:
-- Late show is seamless
-- There were a ton of snaps and 'thud' sounds I cleaned up (some remain)
-- Thanks to Frank Streeter for lending me his masters
-- Thanks to Joe B. Jones for his help with the pitch correction

Early Show:
d1t01 - Tuning
d1t02 - How Sweet It Is (To Be Loved By You)
d1t03 - Catfish John
d1t04 - That's What Love Will Make You Do
d1t05 - Like A Road
d1t06 - Love In The Afternoon
d1t07 - Sugaree
d1t08 - Tangled Up In Blue

Late Show:
d2t01 - Tuning
d2t02 - Harder They Come
d2t03 - They Love Each Other
d2t04 - Tore Up Over You
d2t05 - Mission In The Rain
d2t06 - I'll Take A Melody
d2t07 - Mississippi Moon
d2t08 - Dear Prudence
d3t01 - Deal ->
d3t02 - Midnight Moonlight


SHNTOOL OUTPUT:
    length     expanded size    cdr  WAVE problems  fmt   ratio  filename
     1:53.67       20090828 B   ---   --   ---xx   flac  0.6123  jgb1981-02-07d1t01.flac
     8:52.11       93870716 B   ---   --   ---xx   flac  0.6563  jgb1981-02-07d1t02.flac
    11:26.64      121160972 B   ---   --   ---xx   flac  0.6366  jgb1981-02-07d1t03.flac
     9:34.14      101286572 B   ---   --   ---xx   flac  0.6633  jgb1981-02-07d1t04.flac
    12:16.74      130004492 B   ---   --   ---xx   flac  0.6055  jgb1981-02-07d1t05.flac
    10:52.64      115163372 B   ---   --   ---xx   flac  0.6370  jgb1981-02-07d1t06.flac
    10:02.35      106275164 B   ---   --   ---xx   flac  0.6545  jgb1981-02-07d1t07.flac
     8:37.43       91299980 B   ---   --   ---xx   flac  0.6732  jgb1981-02-07d1t08.flac
     1:17.17       13622828 B   ---   --   ---xx   flac  0.5963  jgb1981-02-07d2t01.flac
    11:57.71      126645836 B   ---   --   ---xx   flac  0.6487  jgb1981-02-07d2t02.flac
     8:48.39       93230972 B   ---   --   ---xx   flac  0.6369  jgb1981-02-07d2t03.flac
     9:48.24      103779692 B   ---   --   ---xx   flac  0.6505  jgb1981-02-07d2t04.flac
    10:26.15      110461724 B   ---   --   ---xx   flac  0.6245  jgb1981-02-07d2t05.flac
    13:31.44      143163932 B   ---   --   ---xx   flac  0.6134  jgb1981-02-07d2t06.flac
    11:13.60      118858364 B   ---   --   ---xx   flac  0.5912  jgb1981-02-07d2t07.flac
    11:37.31      123023756 B   ---   --   ---xx   flac  0.6306  jgb1981-02-07d2t08.flac
     7:29.32       79278908 B   ---   --   ---xx   flac  0.6595  jgb1981-02-07d3t01.flac
     8:32.14       90349772 B   ---   --   ---xx   flac  0.6508  jgb1981-02-07d3t02.flac
   168:19.44     1781567880 B                            0.6366  (18 files)


Show Checksums
ffp
jgb1981-02-07d1t01.flac:d60f5890bf61731cae0a648f8d074253
jgb1981-02-07d1t02.flac:48661f127dec8102a097ad15b17f2a33
jgb1981-02-07d1t03.flac:9cf748b1604771ab2ab586809fb8520a
jgb1981-02-07d1t04.flac:55da49dff887c3e3d7996e1cba31ecd6
jgb1981-02-07d1t05.flac:673433eec60cbfc12a95db8b2e323c4b
jgb1981-02-07d1t06.flac:94b9a280fa8e78ab4ac32e97943965bf
jgb1981-02-07d1t07.flac:d5de6713991beb96b0b2126764923d48
jgb1981-02-07d1t08.flac:915ffa5c982cc277e858b64485639e9f
jgb1981-02-07d2t01.flac:9bd0724ed34be5d4282c0e46720b42e8
jgb1981-02-07d2t02.flac:1ceeff5cae266d4dbe73efdd0e212294
jgb1981-02-07d2t03.flac:6659b1080c7f7f0afde730b6f79c34f2
jgb1981-02-07d2t04.flac:2a5ba41dda977da70ef01188387494f8
jgb1981-02-07d2t05.flac:ce0adb124ef00f010a043c1114e743d0
jgb1981-02-07d2t06.flac:b0137d46f3cb349e082fd17ea5643aab
jgb1981-02-07d2t07.flac:f9c47bbe2c120be696473b1cc8391221
jgb1981-02-07d2t08.flac:80104e2ca59d989d6ec207d2e167679a
jgb1981-02-07d3t01.flac:062651b68c82cdc2010070122050f16b
jgb1981-02-07d3t02.flac:da66a6833c125b7da407d29bc29f536c
flac-md5
70664ebfbddabe3fdf5e6abc2726f4f8 *jgb1981-02-07d1t01.flac
930a51a846b660263e75191293108949 *jgb1981-02-07d1t02.flac
21378e5fe742d5d97a42fdfac519dbe6 *jgb1981-02-07d1t03.flac
e682c49d14f54cecc056a9d33500e39c *jgb1981-02-07d1t04.flac
9bf38d9b181c387c63c45b6cad9b34e8 *jgb1981-02-07d1t05.flac
48320762fd57e40fb03508fc2f5f5a51 *jgb1981-02-07d1t06.flac
ac18f08f86c6be4f19bf1dd890e7a588 *jgb1981-02-07d1t07.flac
fee4db77409d9419f699e6917797bce0 *jgb1981-02-07d1t08.flac
e3c82f0652a5f77a14844c31dc2795d9 *jgb1981-02-07d2t01.flac
3c5b4ba89cd73597b14495c7f0e37f78 *jgb1981-02-07d2t02.flac
5408d35d1def2cd764926f3512c9f9e9 *jgb1981-02-07d2t03.flac
3c68ae1ea8f46d3b81190be738615aa3 *jgb1981-02-07d2t04.flac
f32e5dcf7dba59f86d6d462b74dad762 *jgb1981-02-07d2t05.flac
4a0dd55df3b7c462ebec62e2cd092f27 *jgb1981-02-07d2t06.flac
f5b661e1ebabbd9f6bf28d4290c91327 *jgb1981-02-07d2t07.flac
fa8d973433f350eda493a5627d97b243 *jgb1981-02-07d2t08.flac
4c82333ea29c722068a2087690b58209 *jgb1981-02-07d3t01.flac
890b0ab89c0a29a7b2c8c33e0a096be8 *jgb1981-02-07d3t02.flac

Comments
Add Comment
Other Sources (comments)
JGB, late show: Jim Vita's... (0)
Date User Comment