Browse Collections Artists Sources   Search Dates

Add Show    List Management    Help


Garcia 11/13/81
Orpheum Theater, Boston, MA
Comments Add Comment    Source Collectors    Add to Collection    Add to Want List    History
Source # 123554 Other Sources
Entered by Joe Jupille
Checksums flac-md5 , ffp
Disc Counts 0 / 0
Media Size Compressed: 769.11 MB (806471201 bytes)
Uncompressed: 1.13 GB (1215509468 bytes)
Date Circulated
Date Added
01/21/2013
01/22/2013
Source Summary JGB: flac1644; Early and Late Shows; Frank Streeter's Sennheiser 421 -> Cassette Master (Sony TC-D5M/Maxell MX90); Transfer Info: Cassette Master (Sony TC-K677ES) -> Sound Devices 744T (24bit/48k) -> Adobe Audition v3.0 -> Samplitude Professional v11.2.1 -> FLAC/16; All Transfers and Mastering By Charlie Miller 
Source Information - Download Text | Download Zip
Jerry Garcia Band - November 13, 1981
Orpheum Theatre - Boston, MA

Recording Info:
Sennheiser 421 -> Cassette Master (Sony TC-D5M/Maxell MX90)

Transfer Info:
Cassette Master (Sony TC-K677ES) -> Sound Devices 744T (24bit/48k) ->
Adobe Audition v3.0 -> Samplitude Professional v11.2.1 -> FLAC/16
(2 Discs Audio / 1 DVD FLAC)

All Transfers and Mastering By Charlie Miller
[email protected]
January 21, 2013

Notes:
-- Late show ended early due to power outage caused by nearby fire
-- Thanks to Frank Streeter for lending me his masters
-- Thanks to Joe B. Jones for his help with the pitch correction

Early Show:
d1t01 - Tuning
d1t02 - Sugaree
d1t03 - Catfish John
d1t04 - That's What Love Will Make You Do
d1t05 - Simple Twist Of Fate
d1t06 - Second That Emotion
d1t07 - Mississippi Moon
d1t08 - Deal

Late Show:
d2t01 - Tuning
d2t02 - The Way You Do The Things You Do
d2t03 - They Love Each Other
d2t04 - Valerie
d2t05 - The Harder They Come


SHNTOOL OUTPUT:
    length     expanded size    cdr  WAVE problems  fmt   ratio  filename
     0:53.07        9365708 B   ---   --   ---xx   flac  0.6258  jgb1981-11-13d1t01.flac
    11:49.23      125121740 B   ---   --   ---xx   flac  0.6648  jgb1981-11-13d1t02.flac
     9:44.10      103041164 B   ---   --   ---xx   flac  0.6633  jgb1981-11-13d1t03.flac
    10:26.21      110475836 B   ---   --   ---xx   flac  0.6773  jgb1981-11-13d1t04.flac
    14:23.26      152294396 B   ---   --   ---xx   flac  0.6363  jgb1981-11-13d1t05.flac
    11:21.11      120154316 B   ---   --   ---xx   flac  0.6865  jgb1981-11-13d1t06.flac
    10:31.15      111343724 B   ---   --   ---xx   flac  0.6462  jgb1981-11-13d1t07.flac
     8:58.34       94983212 B   ---   --   ---xx   flac  0.7007  jgb1981-11-13d1t08.flac
     0:54.13        9556220 B   ---   --   ---xx   flac  0.6211  jgb1981-11-13d2t01.flac
     7:25.69       78660332 B   ---   --   ---xx   flac  0.6754  jgb1981-11-13d2t02.flac
     7:08.17       75539228 B   ---   --   ---xx   flac  0.6684  jgb1981-11-13d2t03.flac
     8:05.39       85645772 B   ---   --   ---xx   flac  0.6371  jgb1981-11-13d2t04.flac
    13:09.63      139327820 B   ---   --   ---xx   flac  0.6621  jgb1981-11-13d2t05.flac
   114:50.48     1215509468 B                            0.6635  (13 files)


Show Checksums
flac-md5
46fbcb8a976a70a68e391c7439c6fed6 *jgb1981-11-13d1t01.flac
d06a47558cab6bf15af57a25bee597d8 *jgb1981-11-13d1t02.flac
8578e5b3b6cc8b4b9f5073b01608be73 *jgb1981-11-13d1t03.flac
e6e170dcb5eed39bd365a378f9acd6aa *jgb1981-11-13d1t04.flac
a7f8a55156c21de054f69115d0a46463 *jgb1981-11-13d1t05.flac
9c5a7baad7d93b44e8bec55d3fb43e7a *jgb1981-11-13d1t06.flac
c30c830eefe53e97f69f39821ee41660 *jgb1981-11-13d1t07.flac
7e07ea335d77d8d3574cb5a8028089fd *jgb1981-11-13d1t08.flac
74d2b99713a1956f9f72f441a6f9eb3e *jgb1981-11-13d2t01.flac
288eb8a8e7ebb11b807919b4c56efa83 *jgb1981-11-13d2t02.flac
e25680d850de8cfbafe66bbf5911e1c4 *jgb1981-11-13d2t03.flac
5aea732e2fd8c8f898b49ee15dd69151 *jgb1981-11-13d2t04.flac
d344527971b489a20e95a4d6dacba64e *jgb1981-11-13d2t05.flac
ffp
jgb1981-11-13d1t01.flac:a37df1c0d05bfc964b2bd26fbe3159a5
jgb1981-11-13d1t02.flac:4f74834288def42f05737a75695397a9
jgb1981-11-13d1t03.flac:d5040360a9c46fd7a26cc1d930096ffa
jgb1981-11-13d1t04.flac:c2e2e626750270d6f9caf5926236468f
jgb1981-11-13d1t05.flac:1b7fde813308f688fb4ef3eb932667ad
jgb1981-11-13d1t06.flac:b2928b5b47568150c28d0cacf9acad96
jgb1981-11-13d1t07.flac:51ec07488cc3ba8d27cfd33717350861
jgb1981-11-13d1t08.flac:3211918ad0fe45eb1764b6a143f02f2f
jgb1981-11-13d2t01.flac:20b351ba45c1e517e25de64821c0260b
jgb1981-11-13d2t02.flac:5e6e17e8715bd2e6fbc0387c040c51e5
jgb1981-11-13d2t03.flac:b329c5c86ceeec0d81a2dce88706a105
jgb1981-11-13d2t04.flac:49c0edfef8e1003b15d861ce6dd63abd
jgb1981-11-13d2t05.flac:419d404495b07310f069daa8a1cac29d

Comments
Add Comment
Other Sources (comments)
Jerry Garcia Band: Early &... (3) JGB, Late Show: master:... (0)
Date User Comment