Browse Collections Artists Sources   Search Dates

Add Show    List Management    Help


Grateful Dead 10/20/89
The Spectrum, Philadelphia, PA
Comments Add Comment    Source Collectors    Add to Collection    Add to Want List    History
Source # 123584 Other Sources
Entered by Matt Vernon
Checksums flac-md5 , ffp
Disc Counts 0 / 0
Media Size Compressed: 1.05 GB (1130229350 bytes)
Uncompressed: 1.88 GB (2020735880 bytes)
Date Circulated
Date Added
01/25/2013
01/25/2013
Source Summary flac16; MAV (Taped by Peanut Production camera crew);Nak 300 Shotguns -> 0 Decks -> Panasonic AG-7400 -> S-VHS Master Transfer: S-VHS Master -> Sony SLV-R5UC -> Panasonic AG-7400 -> S-VHS 1st Gen. Transfer: S-VHS 1st Gen. -> Panasonic AG-7150 -> Canopus ADVC-100 -> iMac Core 2 Duo -> Final Cut Pro 6 -> Compressor 3 -> BHP -> Adobe Audition 3.0 -> R8Brain Pro -> CDWave 
  Archive
Source Information - Download Text | Download Zip
Grateful Dead
The Spectrum, Philadelphia, PA
October 20, 1989

JVC Single Tube Camera, Nak 300 Shotguns -> 0 Decks -> Panasonic AG-7400 -> S-VHS Master
Transfer: S-VHS Master -> Sony SLV-R5UC -> Panasonic AG-7400 -> S-VHS 1st Gen.
Transfer: S-VHS 1st Gen. -> Panasonic AG-7150 -> Canopus ADVC-100 -> iMac Core 2 Duo -> Final Cut Pro 6 -> Compressor 3 -> BHP -> Adobe Audition 3.0 -> R8Brain Pro -> CDWave
LCPM audio from video soundtrack at 48/16 converted to 44/16 using R8Brain Pro
Thanks to Peanut Production for supplying this audio

Set 1:
d1t01 - Touch Of Grey ->
d1t02 - Greatest Story Ever Told
d1t03 - Candyman
d1t04 - Picasso Moon
d1t05 - Just A Little Light
d1t06 - Tennessee Jed
d1t07 - Stuck Inside Of Mobile With The Memphis Blues Again
d1t08 - Stagger Lee
d1t09 - The Promised Land ->
d1t10 - California Earthquake

Set 2:
d2t01 - Hey Pocky Way ->
d2t02 - Scarlet Begonias ->
d2t03 - Fire On The Mountain ->
d2t04 - Truckin' ->
d2t05 - The Other One Jam ->
d2t06 - Drums ->
d3t01 - Space ->
d3t02 - I Will Take You Home ->
d3t03 - The Other One ->
d3t04 - Wharf Rat ->
d3t05 - Sugar Magnolia

Encore:
d3t06 - Brokedown Palace

---------------------------------------------------------
- Mixed by [email protected]
- FLAC conversion 24-JAN-2013 - Trader Little Helper
- Tagged 24-JAN-2013 - Tag&Rename
---------------------------------------------------------

Brokedown House Production

    length     expanded size    cdr  WAVE problems  fmt   ratio  filename
     6:45.41       71538476 B   ---   --   -----    wav  1.0000  gd1989-10-20d1t01.wav
     4:44.37       50184668 B   ---   --   -----    wav  1.0000  gd1989-10-20d1t02.wav
     9:45.49      103309292 B   ---   --   -----    wav  1.0000  gd1989-10-20d1t03.wav
     9:59.35      105745964 B   ---   --   -----    wav  1.0000  gd1989-10-20d1t04.wav
     5:48.08       61406060 B   ---   --   -----    wav  1.0000  gd1989-10-20d1t05.wav
     8:46.19       92831132 B   ---   --   -----    wav  1.0000  gd1989-10-20d1t06.wav
    11:13.09      118738412 B   ---   --   -----    wav  1.0000  gd1989-10-20d1t07.wav
     6:48.03       71978300 B   ---   --   -----    wav  1.0000  gd1989-10-20d1t08.wav
     4:26.38       47011820 B   ---   --   -----    wav  1.0000  gd1989-10-20d1t09.wav
     6:04.43       64310780 B   ---   --   -----    wav  1.0000  gd1989-10-20d1t10.wav
     7:18.10       77286764 B   ---   --   -----    wav  1.0000  gd1989-10-20d2t01.wav
    10:12.10      107980364 B   ---   --   -----    wav  1.0000  gd1989-10-20d2t02.wav
    13:37.04      144128252 B   ---   --   -----    wav  1.0000  gd1989-10-20d2t03.wav
     6:32.06       69162956 B   ---   --   -----    wav  1.0000  gd1989-10-20d2t04.wav
    14:35.02      154354748 B   ---   --   -----    wav  1.0000  gd1989-10-20d2t05.wav
    10:46.26      114015596 B   ---   --   -----    wav  1.0000  gd1989-10-20d2t06.wav
    10:43.27      113488748 B   ---   --   -----    wav  1.0000  gd1989-10-20d3t01.wav
     5:19.08       56290460 B   ---   --   -----    wav  1.0000  gd1989-10-20d3t02.wav
    10:51.74      115010492 B   ---   --   -----    wav  1.0000  gd1989-10-20d3t03.wav
    10:15.18      108528380 B   ---   --   -----    wav  1.0000  gd1989-10-20d3t04.wav
    10:47.44      114234332 B   ---   --   -----    wav  1.0000  gd1989-10-20d3t05.wav
     5:35.45       59199884 B   ---   --   -----    wav  1.0000  gd1989-10-20d3t06.wav
   190:55.31     2020735880 B                            1.0000  (22 files)




Show Checksums
flac-md5
67d4e8c22f768d0ba6f1ab8a9a272ac1 *gd1989-10-20d1t01.flac
993955c2e3dfc1d83e29e252be436451 *gd1989-10-20d1t02.flac
76ad0349e21a87a36fa4d0ac804bda5c *gd1989-10-20d1t03.flac
aae100f68c684b47373f979e51aa1530 *gd1989-10-20d1t04.flac
13ef9eee2a6158f29b1f716ac144f5ba *gd1989-10-20d1t05.flac
87d54a5d0f7524e785aeac978ea466d8 *gd1989-10-20d1t06.flac
75da20497c82005847496f752bef9b15 *gd1989-10-20d1t07.flac
ec880037a8341241aa3ebb1dba32d2ad *gd1989-10-20d1t08.flac
dc5bdaa59a5bddbe1e1c69d5fad5989f *gd1989-10-20d1t09.flac
de24a9a36cda10b9acee6d1e025a1043 *gd1989-10-20d1t10.flac
bdad06eae441c66e364af646173169c0 *gd1989-10-20d2t01.flac
4b37e7bcc3ada6fa666fea0446b9c63c *gd1989-10-20d2t02.flac
4873ad8dbd8f1d281e65600da16c2fab *gd1989-10-20d2t03.flac
ee7e3256c6a78d64fe0ada9ea91a9268 *gd1989-10-20d2t04.flac
d66f30e3e18b2118fa56edfa9226a625 *gd1989-10-20d2t05.flac
d41aea9197007d9adfa3e2233a870117 *gd1989-10-20d2t06.flac
b6282ed4eeddab7c89b4f969c8f18fc5 *gd1989-10-20d3t01.flac
cda154c13d825f8a3c7dae71c98b01b4 *gd1989-10-20d3t02.flac
6a75e45cd9303ad5de0a8114dd2fc891 *gd1989-10-20d3t03.flac
a9332e81f63420ee27d240dd554b0326 *gd1989-10-20d3t04.flac
26c8f9cfc1df541e4adc91e8a43390da *gd1989-10-20d3t05.flac
25c40e6c0e5ba0a9e2263cc7084422df *gd1989-10-20d3t06.flac
ffp
gd1989-10-20d1t01.flac:028c5f5600677823142dc82d3003b439
gd1989-10-20d1t02.flac:175dc815056b0202655222c067d738a3
gd1989-10-20d1t03.flac:4c5d02c32ee3a42017302602223f8e9e
gd1989-10-20d1t04.flac:4c4a0fc389aad5ca2618e19d27c23c5c
gd1989-10-20d1t05.flac:1149f71fc30a56895febe12e5b4b14b1
gd1989-10-20d1t06.flac:fac1c0dd5e36b6843b6bb6702493b5c0
gd1989-10-20d1t07.flac:fc999f51a69cb2398a4ee9828f82e505
gd1989-10-20d1t08.flac:6c060eaa96f35d598ededafbe2c7c59a
gd1989-10-20d1t09.flac:8535efe40476a579d31b861a7d2af4b9
gd1989-10-20d1t10.flac:dbb26e04f0e0a729cb2cec8043faa609
gd1989-10-20d2t01.flac:5dc75c6d781a2801093625fdb882b27c
gd1989-10-20d2t02.flac:d704773b1e6d56905729070d3179e8c6
gd1989-10-20d2t03.flac:1074a9948aff00a3e81d774389ceb941
gd1989-10-20d2t04.flac:08b8d07d81926a87a6f6f9599ec9907e
gd1989-10-20d2t05.flac:e3a74948e9ff842e7860d8048c32879d
gd1989-10-20d2t06.flac:50d7f183dcbfec2b257a46d7cefbfdce
gd1989-10-20d3t01.flac:c8be240ea2cd11684db8c252b044c7d1
gd1989-10-20d3t02.flac:7b009e4402b2e9a7237d4417ab69c775
gd1989-10-20d3t03.flac:e2f01bf740b7345a41dc9f5849251b01
gd1989-10-20d3t04.flac:5ff94d693e011ee74c33085baa84ab75
gd1989-10-20d3t05.flac:a7c37835ffc2f1d8987ce5ac3b75d1e7
gd1989-10-20d3t06.flac:34ca322335d2dd71a4d120f82fbb3cb7

Comments
Add Comment
Other Sources (comments)
DSBD>C?>DAT>CDR; via eD... (0) Ultra-Matrix Soundboard DAT... (0) Seamless fix of (0) flac16; Recording... (0) Possibly Shure M57s... (2) flac16; Source:... (1) flac16; Matrix by... (0) flac16; SBD Master... (0) flac16; Source:... (0) flac16/48kHz;... (0) flac16; Source:... (0) flac16; Matrix 2... (0) DTS Audio 5.1; SBD... (0) flac16/48kHz; Source... (0)
Date User Comment