Browse Collections Artists Sources   Search Dates

Add Show    List Management    Help


Grateful Dead 08/29/80
The Spectrum, Philadelphia, PA
Comments Add Comment    Source Collectors    Add to Collection    Add to Want List    History
Source # 123588 Other Sources
Entered by Matt Vernon
Checksums flac-md5 , ffp
Disc Counts 0 / 0
Media Size Compressed: 552 MB (578813952 bytes)
Date Circulated
Date Added
01/26/2013
01/26/2013
Source Summary flac16; Set 2 only, AUD, unknown equipment & lineage. Pitch adjusted. Transfer: Maxell XLII > Nakamichi CR-5A > Edirol FA-66 > Wavelab 2448 > R8Brain > TLH > FLAC 1644, January 2013. 
  Archive
Source Information - Download Text | Download Zip
GRATEFUL DEAD
Spectrum
Philadelphia PA
08-29-1980
Second Set

01 Greatest Story Ever Told >
02 Althea
03 Let it Grow >
04 He's Gone >
05 The Other One
06 Drums//
07 //Space > Wharf Rat >
08 Goin' Down the Road >
09 Around & Around >
10 Johnny B. Goode
11 Encore: U.S. Blues

AUD, unknown equipment & lineage.
(Does not match the known AUDs of Wise & Morris that are circulating as of Jan 2013)

Transfer: Maxell XLII > Nakamichi CR-5A > Edirol FA-66 > Wavelab 2448 > R8Brain > TLH > FLAC 1644, January 2013.

Notes: Drums cuts out near the end, most of Space is missing. Some tape damage in the
left channel cassette B-side, some of the right channel mixed over it in order to
lessen the effect. 11-second patch from Morris added, end of GDTRFB > start of R&R.

    length     expanded size    cdr  WAVE problems  fmt   ratio  filename
     3:54.32       41352908 B   ---   --   ---xx   flac  0.6577  gd1980-08-29s2t01.flac
     8:03.53       85325900 B   ---   --   ---xx   flac  0.6538  gd1980-08-29s2t02.flac
    10:31.12      111336668 B   ---   --   ---xx   flac  0.6571  gd1980-08-29s2t03.flac
    12:16.73      130002140 B   ---   --   ---xx   flac  0.6484  gd1980-08-29s2t04.flac
    10:28.16      110816876 B   ---   --   ---xx   flac  0.6602  gd1980-08-29s2t05.flac
     4:13.22       44680988 B   ---   --   ---xx   flac  0.6209  gd1980-08-29s2t06.flac
    11:03.54      117080252 B   ---   --   ---xx   flac  0.6142  gd1980-08-29s2t07.flac
     6:50.52       72446348 B   ---   --   ---xx   flac  0.6229  gd1980-08-29s2t08.flac
     4:00.42       42434828 B   ---   --   ---xx   flac  0.6204  gd1980-08-29s2t09.flac
     3:57.27       41870348 B   ---   --   ---xx   flac  0.6285  gd1980-08-29s2t10.flac
     5:37.10       59470364 B   ---   --   ---xx   flac  0.6240  gd1980-08-29s2t11.flac
    80:57.18      856817620 B                            0.6397  (11 files)

No errors occured.




Show Checksums
flac-md5
3d27aaa51e8f652aabb908c849473c7e *gd1980-08-29s2t01.flac
5e27fdf63ec5f7bf25ccd78777f78a0f *gd1980-08-29s2t02.flac
aa7d2a9e8a4b8a6667e5e14352e5f8f7 *gd1980-08-29s2t03.flac
aa0113c82de03880c354dcbffc95d914 *gd1980-08-29s2t04.flac
3d4be0de4f369c369fb4112c4d5973bf *gd1980-08-29s2t05.flac
217d66ec68bfb7f37d8206557abcef99 *gd1980-08-29s2t06.flac
c977576564f16431fd59b10a1860250d *gd1980-08-29s2t07.flac
94f55257cdeec54132c491a04742daf6 *gd1980-08-29s2t08.flac
3e82a769452fc10fce31ee64c351e632 *gd1980-08-29s2t09.flac
c3d64e013830340246c8ee1b72c5bebb *gd1980-08-29s2t10.flac
e582d8e6ec937d9271ef630b8b7a2a3e *gd1980-08-29s2t11.flac
ffp
gd1980-08-29s2t01.flac:cfef075086a67a523766df1fe6403b0d
gd1980-08-29s2t02.flac:b50e22b00a06adf2d8320eb7ce0414e2
gd1980-08-29s2t03.flac:36ac759eed11d7c026ccba215b673be9
gd1980-08-29s2t04.flac:8eb40eedd7865be20bfe2b8ffb185dfb
gd1980-08-29s2t05.flac:e67a3744dcaeacba978909fac6401559
gd1980-08-29s2t06.flac:4236846d4dbb02fc6753021dee2f5a4b
gd1980-08-29s2t07.flac:deec24be63613a9c1a8b5c354f0339cb
gd1980-08-29s2t08.flac:5896dd5a2956f88522f463143a0efe77
gd1980-08-29s2t09.flac:b8af05c56e98b08c9798bcc9c0e60080
gd1980-08-29s2t10.flac:fb8087f1e32b8fb0fa94dde00c86568a
gd1980-08-29s2t11.flac:e99dd38555e50460bd36063a8cf54df3

Comments
Add Comment
Other Sources (comments)
1st Set; Senn... (0) flac16; Recording... (1) flac16; Recording... (0) flac16; Nakamichi... (0)
Date User Comment
01/26/2013 nfagdtrfb Oops, forgot to add the transfer info to text file:

Transfer: Maxell XLII > Nakamichi CR-5A > Edirol FA-66 > Wavelab 2448 > R8Brain > TLH > FLAC 1644, January 2013.