Browse Collections Artists Sources   Search Dates

Add Show    List Management    Help


Phish 12/09/95
Knickerbocker Arena, Albany, NY
Comments Add Comment    Source Collectors    Add to Collection    Add to Want List    History
Source # 123604 Other Sources
Entered by Jason Sobel
Checksums FFP , FLAC-md5
Disc Counts 0 / 0
Media Size Compressed: 891.57 MB (934881150 bytes)
Date Circulated
Date Added
01/27/2013
01/27/2013
Source Summary flac16; AKG 460/CK8X -> Dat (48k); Tascam DA-20 -> Sound Devices 744T -> Samplitude Professional v11.2.1 -> FLAC; Transferred by Charlie Miller 
Source Information - Download Text | Download Zip
Phish - December 9, 1995
Knickerbocker Arena - Albany, NY

Recording Info:
AKG 460/CK8X -> Dat (48k)

Transfer Info:
Dat (Tascam DA-20) -> Sound Devices 744T -> Samplitude Professional v11.2.1 -> FLAC
(2 Discs Audio / 1 DVD FLAC)

All Transfers and Mastering By Charlie Miller
[email protected]
January 27, 2013

Notes:
-- Disc change is seamless

Set 1:
d1t01 - Maze
d1t02 - Theme From The Bottom ->
d1t03 - NICU ->
d1t04 - The Sloth ->
d1t05 - Rift
d1t06 - Bouncing Around The Room
d1t07 - Free
d1t08 - Billy Breathes
d1t09 - Dog Faced Boy
d1t10 - Chalk Dust Torture

Set 2:
d1t11 - Crowd Chess Move
d1t12 - Timber (Jerry)
d2t01 - Wilson ->
d2t02 - Gumbo
d2t03 - You Enjoy Myself
d2t04 - Lawn Boy
d2t05 - Slave To The Traffic Light ->
d2t06 - Crossroads
d2t07 - Sweet Adeline

Encore:
d2t08 - Loving Cup


SHNTOOL OUTPUT:
    length     expanded size    cdr  WAVE problems  fmt   ratio  filename
    12:46.59      135261212 B   ---   --   ---xx   flac  0.5995  phish1995-12-09d1t01.flac
     9:49.68      104059580 B   ---   --   ---xx   flac  0.5932  phish1995-12-09d1t02.flac
     5:10.37       54771068 B   ---   --   ---xx   flac  0.6077  phish1995-12-09d1t03.flac
     3:42.23       39214940 B   ---   --   ---xx   flac  0.6224  phish1995-12-09d1t04.flac
     5:39.22       59851388 B   ---   --   ---xx   flac  0.6101  phish1995-12-09d1t05.flac
     3:38.66       38610476 B   ---   --   ---xx   flac  0.6092  phish1995-12-09d1t06.flac
     9:08.04       96676652 B   ---   --   ---xx   flac  0.6147  phish1995-12-09d1t07.flac
     5:15.73       55737740 B   ---   --   ---xx   flac  0.5693  phish1995-12-09d1t08.flac
     2:05.11       22075916 B   ---   --   ---xx   flac  0.4941  phish1995-12-09d1t09.flac
     7:38.44       80894732 B   ---   --   ---xx   flac  0.6404  phish1995-12-09d1t10.flac
     0:46.54        8241452 B   ---   --   ---xx   flac  0.4911  phish1995-12-09d1t11.flac
     7:28.20       79074284 B   ---   --   ---xx   flac  0.6185  phish1995-12-09d1t12.flac
     6:17.73       66674540 B   ---   --   ---xx   flac  0.5891  phish1995-12-09d2t01.flac
     5:26.59       57645212 B   ---   --   ---xx   flac  0.6010  phish1995-12-09d2t02.flac
    34:22.23      363790940 B   ---   --   ---xx   flac  0.5890  phish1995-12-09d2t03.flac
     2:38.65       28024124 B   ---   --   ---xx   flac  0.5414  phish1995-12-09d2t04.flac
    11:34.66      122576876 B   ---   --   ---xx   flac  0.6001  phish1995-12-09d2t05.flac
     4:51.33       51410060 B   ---   --   ---xx   flac  0.6136  phish1995-12-09d2t06.flac
     3:48.04       40228652 B   ---   --   ---xx   flac  0.5412  phish1995-12-09d2t07.flac
     5:34.27       58981148 B   ---   --   ---xx   flac  0.6321  phish1995-12-09d2t08.flac
   147:45.06     1563800992 B                            0.5978  (20 files)

Show Checksums
FFP
phish1995-12-09d1t01.flac:b01be3c20d3aea1b546132fed33c80a4
phish1995-12-09d1t02.flac:41b5299253000e5303edb5b78e9deafd
phish1995-12-09d1t03.flac:3a38d5abeace12ad5e8a7e003e091ff9
phish1995-12-09d1t04.flac:73ff29403bed3e00dec26d609738ad8a
phish1995-12-09d1t05.flac:723f090acffb9901a5352180c33e280b
phish1995-12-09d1t06.flac:380bfd013f4f38acaa9396179c478f97
phish1995-12-09d1t07.flac:aa020dfb37562320b0b8d2934887994c
phish1995-12-09d1t08.flac:86fc2c55a32601fa4f8bf7c5a116f03e
phish1995-12-09d1t09.flac:2fc7ba8b4e61325dfe7c2ad022a2a494
phish1995-12-09d1t10.flac:6f5f4d6b83bb23f80a75abc647353725
phish1995-12-09d1t11.flac:90edc999ff57c1c9454bec7083e0daf2
phish1995-12-09d1t12.flac:6d80ee229effa109ae189b9fa05cea25
phish1995-12-09d2t01.flac:a0478474b1bafd00c48b4eaf539a3de6
phish1995-12-09d2t02.flac:be1cd899d95675f31a1c7faf64ed1686
phish1995-12-09d2t03.flac:ebae78c01fa2f499f8f78f97d7e43283
phish1995-12-09d2t04.flac:ffb120e74bf6854aee22dcbc38361b03
phish1995-12-09d2t05.flac:f7a88dcc376d54fb629ffa477ed5062b
phish1995-12-09d2t06.flac:05a0759bdaf938fc794e5f1e289a65c8
phish1995-12-09d2t07.flac:aab4df32cfaf507a2c4d2a71cc30f558
phish1995-12-09d2t08.flac:29631a97f65d8f384e72bf80161b35cf
FLAC-md5
3186d14babb56434ac7b6d41b58df41c *phish1995-12-09d1t01.flac
242b1386d912b207598a7deb6edc597f *phish1995-12-09d1t02.flac
263f7282afaef420747e5693e6f6e53e *phish1995-12-09d1t03.flac
7d01eb5b75f5a7ee0918253692abf1de *phish1995-12-09d1t04.flac
0e17a848464df311ea31360dddeae220 *phish1995-12-09d1t05.flac
d3eff680e7993d8e66d0e3e7db6254bd *phish1995-12-09d1t06.flac
08d5ab5bec323ee7a970736ec2df85e9 *phish1995-12-09d1t07.flac
748b99215b90434c11c741ff8003feb4 *phish1995-12-09d1t08.flac
a7e54433466c04d0d1238619df83512c *phish1995-12-09d1t09.flac
bc2ebc84ec2b83b75eaac1b422b98bfe *phish1995-12-09d1t10.flac
036ea70e2e523d5959251d3e15e7e5e3 *phish1995-12-09d1t11.flac
467ee8c0db7932450c5f6c4d9ed724f4 *phish1995-12-09d1t12.flac
7252c312d59174993aa0ddc9158db1eb *phish1995-12-09d2t01.flac
3d260e4877d76904b41d3cdc7dba8ebd *phish1995-12-09d2t02.flac
5e1bd195634ae477ca6c07d6b6fb4449 *phish1995-12-09d2t03.flac
c14a05032e7ba075025787b6dbfd892a *phish1995-12-09d2t04.flac
6c5d3be92b7d9d05d77eedcedd8d82a5 *phish1995-12-09d2t05.flac
1ff552122d7a98ef1ff38afabf862946 *phish1995-12-09d2t06.flac
c96ea57a1a3459e7aab8e436913079b7 *phish1995-12-09d2t07.flac
58e2c20dfd42e21c7c66a20d69125638 *phish1995-12-09d2t08.flac

Comments
Add Comment
Other Sources (comments)
B+K 4011> Neumann p/s> Sony... (8) Sennheiser 441 > Sony D5 >... (0) flac16, 44.1 kHz;... (1) flac16, 48 kHz; AKG... (1) flac16 48kHz... (0)
Date User Comment