Browse Collections Artists Sources   Search Dates

Add Show    List Management    Help


Jerry Garcia Band 03/02/91
Warfield Theater, San Francisco, CA
Comments Add Comment    Source Collectors    Add to Collection    Add to Want List    History
Source # 123611 Other Sources
Entered by Joe Jupille
Checksums jgb1991-03-02.mk4.ffp
Disc Counts 0 / 0
Media Size Compressed: 815.36 MB (854966927 bytes)
Date Circulated
Date Added
01/27/2013
01/27/2013
Source Summary JGB; flac1648; FOB Schoeps MK4/CMC3 > Oade PS > Panasonic SV-255 @ 48khz; Transfer: SONY PCM-R500 > TASCAM SS-R05 > AUDACITY > FLAC @ 48khz; Transferred on January 26, 2013 by [email protected] 
Source Information - Download Text | Download Zip
Jerry Garcia Band
March 2, 1991 (Saturday)
Warfield Theater
San Francisco, CA

Source: FOB Schoeps MK4/CMC3 > Oade PS > Panasonic SV-255 @ 48khz
Transfer: SONY PCM-R500 > TASCAM SS-R05 > AUDACITY > FLAC @ 48khz
Transferred on January 26, 2013 by [email protected]

-- Set 1 --
01. How Sweet It Is
02. I Shall Be Released
03. You Never Can Tell
04. Mississippi Moon
05. Tore Up over You
06. My Sisters And Brothers
07. Let's Spend The Night Together

-- Set 2 --
08. The Way You Do The Things You Do
09. Senor
10. Struggling Man
11. Money Honey
12. Everybody Needs Somebody To Love
13. Evangeline
14. That Lucky Old Sun
15. Tangled Up In Blue

shnTool output:
    length     expanded size    cdr  WAVE problems  fmt   ratio  filename
     7:49.985      90237096 B   cxx   --   ---xx   flac  0.5047  jgb1991-03-02t01_How Sweet It Is.flac
    12:25.576     143150624 B   cxx   --   ---xx   flac  0.4713  jgb1991-03-02t02_I Shall Be Released.flac
     7:49.016      90051080 B   cxx   --   ---xx   flac  0.5456  jgb1991-03-02t03_You Never Can Tell.flac
    10:15.439     118164376 B   cxx   --   ---xx   flac  0.4570  jgb1991-03-02t04_Mississippi Moon.flac
     7:46.057      89482984 B   cxx   --   ---xx   flac  0.5491  jgb1991-03-02t05_Tore Up Over You.flac
     5:28.981      63164468 B   cxx   --   ---xx   flac  0.4736  jgb1991-03-02t06_My Sisters And Brothers.flac
    13:10.954     151863132 B   cxx   --   ---xx   flac  0.5779  jgb1991-03-02t07_Let's Spend The Night Together.flac
    13:45.569     158509376 B   cxx   --   ---xx   flac  0.5248  jgb1991-03-02t08_The Way You Do The Things You Do.flac
     7:35.426      87441852 B   cxx   --   ---xx   flac  0.4697  jgb1991-03-02t09_Senor.flac
     7:57.028      91589468 B   cxx   --   ---xx   flac  0.5194  jgb1991-03-02t10_Struggling Man.flac
     7:01.020      80835832 B   cxx   --   ---xx   flac  0.5377  jgb1991-03-02t11_Money Honey.flac
    11:18.020     130179896 B   cxx   --   ---xx   flac  0.5864  jgb1991-03-02t12_Everybody Needs Somebody To Love.flac
     5:44.954      66231192 B   cxx   --   ---xx   flac  0.5455  jgb1991-03-02t13_Evangeline.flac
    10:38.508     122593528 B   cxx   --   ---xx   flac  0.4533  jgb1991-03-02t14_That Lucky Old Sun.flac
    13:37.505     156960932 B   cxx   --   ---xx   flac  0.5645  jgb1991-03-02t15_Tangled Up In Blue.flac
   142:24.037    1640455836 B                            0.5211  (15 files)
Show Checksums
jgb1991-03-02.mk4.ffp
jgb1991-03-02t01_How Sweet It Is.flac:77b7e4efeb88261593e900b92cbfaa70
jgb1991-03-02t02_I Shall Be Released.flac:5f113348b84d968467d524f9a3730d77
jgb1991-03-02t03_You Never Can Tell.flac:ccf68cd7dd9a61de88a6234e286538fc
jgb1991-03-02t04_Mississippi Moon.flac:4b813029f6a9a12632c6509c8d100f6f
jgb1991-03-02t05_Tore Up Over You.flac:8f5f1776a59bde63d5759d3690a6d744
jgb1991-03-02t06_My Sisters And Brothers.flac:1032eacb865ad0ae4bf2ea8903af60df
jgb1991-03-02t07_Let's Spend The Night Together.flac:dfd4b16fb2f71b5cc5aa27d71d74195f
jgb1991-03-02t08_The Way You Do The Things You Do.flac:91c9185d615b28c0ab2fbe2f450b8033
jgb1991-03-02t09_Senor.flac:1f6d5a6320ca365d53894e503a0665e2
jgb1991-03-02t10_Struggling Man.flac:7bd80ceab57ba2caae6880cf307a8981
jgb1991-03-02t11_Money Honey.flac:182321321c443778a1797dfd8c915441
jgb1991-03-02t12_Everybody Needs Somebody To Love.flac:0d4525689126c29f43bcea3dc92e8270
jgb1991-03-02t13_Evangeline.flac:ee28cca8a9428238e53ca4bbd3ad056b
jgb1991-03-02t14_That Lucky Old Sun.flac:806a15d9a456edb780631f5f20e39ee1
jgb1991-03-02t15_Tangled Up In Blue.flac:697bf3439d8d84a7a286962153389603

Comments
Add Comment
Date User Comment