Browse Collections Artists Sources   Search Dates

Add Show    List Management    Help


Phish 12/29/95
The Centrum, Worcester, MA
Comments Add Comment    Source Collectors    Add to Collection    Add to Want List    History
Source # 123617 Other Sources
Entered by Jason Sobel
Checksums FFP , FLAC-md5
Disc Counts 0 / 0
Media Size Compressed: 812.63 MB (852105809 bytes)
Date Circulated
Date Added
01/28/2013
01/28/2013
Source Summary flac16; Schoeps CMC6/MK4V -> Sonosax SX-M2 -> Sony D10 (48k); Tascam DA-20 -> Tascam SS-R05 -> Samplitude Professional v11.2.1 -> FLAC; Taped by Jeff Lazarro; Transferred by Charlie Miller 
Source Information - Download Text | Download Zip
Phish - December 29, 1995
The Centrum - Worcester, MA

Recording Info:
Schoeps CMC6/MK4V -> Sonosax SX-M2 -> Dat (Sony D10/48k)

Transfer Info:
Dat (Tascam DA-20) -> Tascam SS-R05 -> Samplitude Professional v11.2.1 -> FLAC
(2 Discs Audio / 1 DVD FLAC)

All Transfers and Mastering By Charlie Miller
[email protected]
January 27, 2013

Notes:
-- Recorded by Jeff Lazarro
-- Bass duet featuring Mike and his bass instructor Jim Stinnett

Set 1:
d1t01 - My Friend, My Friend ->
d1t02 - Poor Heart ->
d1t03 - Down With Disease ->
d1t04 - Taste That Surrounds ->
d1t05 - NICU ->
d1t06 - Stash
d1t07 - Fluffhead
d1t08 - Llama
d1t09 - Sweet Adeline

Set 2:
d2t01 - Makisupa Policeman ->
d2t02 - Cars Trucks Buses
d2t03 - Bathtub Gin -> The Real Me -> Bathtub Gin ->
d2t04 - McGrupp And The Watchful Hosemasters ->
d2t05 - Big Black Furry Creature From Mars ->
d2t06 - Bass Duet ->
d2t07 - La Grange
d2t08 - Bouncing Around The Room
d2t09 - Fire

Encore:
d2t10 - Golgi Apparatus


SHNTOOL OUTPUT:
    length     expanded size    cdr  WAVE problems  fmt   ratio  filename
     6:42.15       70948124 B   ---   --   ---xx   flac  0.5462  phish1995-12-29d1t01.flac
     2:47.38       29548220 B   ---   --   ---xx   flac  0.5708  phish1995-12-29d1t02.flac
     7:34.52       80207948 B   ---   --   ---xx   flac  0.5678  phish1995-12-29d1t03.flac
     7:48.20       82602284 B   ---   --   ---xx   flac  0.5718  phish1995-12-29d1t04.flac
     5:08.33       54408860 B   ---   --   ---xx   flac  0.5591  phish1995-12-29d1t05.flac
    18:04.24      191274092 B   ---   --   ---xx   flac  0.5627  phish1995-12-29d1t06.flac
    14:31.25      153703244 B   ---   --   ---xx   flac  0.5489  phish1995-12-29d1t07.flac
     5:49.15       61598924 B   ---   --   ---xx   flac  0.5674  phish1995-12-29d1t08.flac
     1:48.43       19152380 B   ---   --   ---xx   flac  0.5115  phish1995-12-29d1t09.flac
     7:08.15       75534524 B   ---   --   ---xx   flac  0.5310  phish1995-12-29d2t01.flac
     3:26.05       36350204 B   ---   --   ---xx   flac  0.5681  phish1995-12-29d2t02.flac
    24:05.12      254926268 B   ---   --   ---xx   flac  0.5634  phish1995-12-29d2t03.flac
     9:01.58       95568860 B   ---   --   ---xx   flac  0.5198  phish1995-12-29d2t04.flac
     4:30.42       47726828 B   ---   --   ---xx   flac  0.5965  phish1995-12-29d2t05.flac
     8:44.02       92438348 B   ---   --   ---xx   flac  0.4644  phish1995-12-29d2t06.flac
     5:30.37       58299068 B   ---   --   ---xx   flac  0.5631  phish1995-12-29d2t07.flac
     3:34.65       37902524 B   ---   --   ---xx   flac  0.5750  phish1995-12-29d2t08.flac
     4:15.53       45106700 B   ---   --   ---xx   flac  0.5955  phish1995-12-29d2t09.flac
     4:44.64       50248172 B   ---   --   ---xx   flac  0.5890  phish1995-12-29d2t10.flac
   145:16.18     1537545572 B                            0.5542  (19 files)

Show Checksums
FFP
phish1995-12-29d1t01.flac:e34e79c911099c5062ef856d91c78ae8
phish1995-12-29d1t02.flac:e59aae85b2e9d864814a8b953f4f2fdf
phish1995-12-29d1t03.flac:00765c52cfed9e29ce04d437328a0309
phish1995-12-29d1t04.flac:6052ba0db8956961739e3e0f638c1da5
phish1995-12-29d1t05.flac:493f54b2f104c146ebf908fb5192d2e8
phish1995-12-29d1t06.flac:755e671372ad68e88173c5281d06445f
phish1995-12-29d1t07.flac:52da3820e1cc99f151fc09576e0437bb
phish1995-12-29d1t08.flac:2a18a49499741068ac07209235eb404c
phish1995-12-29d1t09.flac:39203f5690885300730d3d9ab2911cf4
phish1995-12-29d2t01.flac:3c007a8591dc19d20a8a8c3d8aacd2c5
phish1995-12-29d2t02.flac:84097c8fbddb9e0ae9e8a133105e8add
phish1995-12-29d2t03.flac:a6f5e0e9057e57f9064ecd14fc96ad55
phish1995-12-29d2t04.flac:0120f1f38ece25cd5f770f0b1146ccd8
phish1995-12-29d2t05.flac:dfb29b029c915eeecb3692c96be94237
phish1995-12-29d2t06.flac:c89a57e41dd87d987d7bfa81920cf3e6
phish1995-12-29d2t07.flac:4e9bd6e7b0177ae035e55bc5f1826098
phish1995-12-29d2t08.flac:3a7a9052d34d20bb8cce578ed80560ed
phish1995-12-29d2t09.flac:9fdab53fdd66f69d012e2b9ea56081f0
phish1995-12-29d2t10.flac:0b46021b31d97174086714707f4dbf8a
FLAC-md5
6862ffa04f8a244565c406be7432888d *phish1995-12-29d1t01.flac
71dd06b398ab5af6de980c00d522d4a0 *phish1995-12-29d1t02.flac
dedab8bf573555b8e7794a297bc3ae58 *phish1995-12-29d1t03.flac
8fd5698a22305bd5d9713abf45590575 *phish1995-12-29d1t04.flac
9c64756d6c991a2c4dfd18db1c9429e9 *phish1995-12-29d1t05.flac
b96f38118e43df1865a469769301f332 *phish1995-12-29d1t06.flac
87c99bfa2900550fcd922783c0d4a92b *phish1995-12-29d1t07.flac
567a563550f8df69b8f8e9fc4738975a *phish1995-12-29d1t08.flac
8594609b08e65236902c37624dceb9f2 *phish1995-12-29d1t09.flac
f7b04403abd8e7f0084991df3bedef6a *phish1995-12-29d2t01.flac
aacfd1e684e192b7bac82197a6840f80 *phish1995-12-29d2t02.flac
0eff4fb333b22a0eefd8a7739a63bab0 *phish1995-12-29d2t03.flac
8dcd91e37fc51dfb9dd7cf90af71bc9e *phish1995-12-29d2t04.flac
e1bb049d4a70b1573399a9ed72f449a7 *phish1995-12-29d2t05.flac
fbaea52a80d4a76b07a2c8c92064cf30 *phish1995-12-29d2t06.flac
22fd14ce64062069d9ea2ade01bd8c3c *phish1995-12-29d2t07.flac
44a50cb5d30bd6144ccfbdc2885a16ba *phish1995-12-29d2t08.flac
48ed3088a30560de1885cb391a4dac99 *phish1995-12-29d2t09.flac
4731a9b24cf74f12f016513aa9d5176e *phish1995-12-29d2t10.flac

Comments
Add Comment
Other Sources (comments)
AKG 460/ck61; ZA2... (1) AKG 460 Cards > 10ft XLR's... (1) Schoeps CMC6/mk41 > Lunatec... (5) Schoeps CMC6/mk4 > Aerco >... (0) Schoeps CMC64 (split 10 ft,... (2) AKG 460b/ck61 > AKG b18 >... (0) set 1 only; Nuemann KM-184s... (0) flac16; AKG 460/ck61... (0)
Date User Comment
02/02/2013 jasonsobel according to LAStubbe on the original bit torrent comments:
This is very likely cmc6/mk4>sonosax>d10 pro II. I don't think Jeff ran 4v's unless he borrowed them.
07/19/2016 charliemiller My bad, Jason is absolutely correct. This was made with MK4's, NOT 4v's as listed.