Browse Collections Artists Sources   Search Dates

Add Show    List Management    Help


Phish 06/24/95
The Mann Music Center, Philadelphia, PA
Comments Add Comment    Source Collectors    Add to Collection    Add to Want List    History
Source # 123636 Other Sources
Entered by Jason Sobel
Checksums FFP , FLAC-md5
Disc Counts 0 / 0
Media Size Compressed: 860.44 MB (902231995 bytes)
Date Circulated
Date Added
01/28/2013
01/28/2013
Source Summary flac16; B+K 4011 -> Dat (48k); Tascam DA-20 -> Tascam SS-R05 -> Samplitude Professional v11.2.1 -> FLAC; Transferred by Charlie Miller 
Source Information - Download Text | Download Zip
Phish - June 24, 1995
Mann Music Center - Philadelphia, PA

Recording Info:
B+K 4011 -> Dat (48k)

Transfer Info:
Dat (Tascam DA-20) -> Tascam SS-R05 -> Samplitude Professional v11.2.1 -> FLAC
(3 Discs Audio / 1 DVD FLAC)

All Transfers and Mastering By Charlie Miller
[email protected]
January 28, 2013

Notes:
-- Set 2 is seamless
-- Discs 1 and 3 can be combined to fit show onto 2 discs

Set 1:
d1t01 - Fee ->
d1t02 - Rift
d1t03 - Spock's Brain
d1t04 - Julius
d1t05 - Glide
d1t06 - Mound
d1t07 - Stash
d1t08 - The Horse ->
d1t09 - Silent In The Morning
d1t10 - The Squirming Coil

Set 2:
d2t01 - Also Sprach Zarathustra ->
d2t02 - Halley's Comet ->
d2t03 - David Bowie
d2t04 - Lifeboy
d2t05 - Suzy Greenberg
d2t06 - Harry Hood
d2t07 - Acoustic Army
d2t08 - Sweet Adeline
d2t09 - Golgi Apparatus

Encore:
d3t01 - Crowd/Encore Break
d3t02 - Bold As Love


SHNTOOL OUTPUT:
    length     expanded size    cdr  WAVE problems  fmt   ratio  filename
     5:22.26       56861996 B   ---   --   ---xx   flac  0.5465  phish1995-06-24d1t01.flac
     6:03.21       64082636 B   ---   --   ---xx   flac  0.5482  phish1995-06-24d1t02.flac
     5:33.64       58891772 B   ---   --   ---xx   flac  0.5507  phish1995-06-24d1t03.flac
    10:02.14      106225772 B   ---   --   ---xx   flac  0.5734  phish1995-06-24d1t04.flac
     4:32.47       48091388 B   ---   --   ---xx   flac  0.5265  phish1995-06-24d1t05.flac
     6:04.36       64294316 B   ---   --   ---xx   flac  0.5512  phish1995-06-24d1t06.flac
    15:58.26      169052396 B   ---   --   ---xx   flac  0.5562  phish1995-06-24d1t07.flac
     1:34.37       16668668 B   ---   --   ---xx   flac  0.4261  phish1995-06-24d1t08.flac
     5:32.29       58633052 B   ---   --   ---xx   flac  0.5427  phish1995-06-24d1t09.flac
    11:08.53      117959900 B   ---   --   ---xx   flac  0.4982  phish1995-06-24d1t10.flac
     4:24.56       46701356 B   ---   --   ---xx   flac  0.5470  phish1995-06-24d2t01.flac
     7:30.24       79436492 B   ---   --   ---xx   flac  0.5616  phish1995-06-24d2t02.flac
    23:14.19      245946332 B   ---   --   ---xx   flac  0.5350  phish1995-06-24d2t03.flac
     8:37.68       91358780 B   ---   --   ---xx   flac  0.5019  phish1995-06-24d2t04.flac
     6:59.33       73989260 B   ---   --   ---xx   flac  0.5804  phish1995-06-24d2t05.flac
    15:37.32      165362108 B   ---   --   ---xx   flac  0.5185  phish1995-06-24d2t06.flac
     5:52.19       62137532 B   ---   --   ---xx   flac  0.4210  phish1995-06-24d2t07.flac
     2:23.23       25279340 B   ---   --   ---xx   flac  0.4495  phish1995-06-24d2t08.flac
     4:42.61       49888316 B   ---   --   ---xx   flac  0.5571  phish1995-06-24d2t09.flac
     2:12.62       23430668 B   ---   --   ---xx   flac  0.4861  phish1995-06-24d3t01.flac
     6:14.61       66117116 B   ---   --   ---xx   flac  0.5632  phish1995-06-24d3t02.flac
   159:42.61     1690409196 B                            0.5337  (21 files)

Show Checksums
FFP
phish1995-06-24d1t01.flac:96859f027cf9b7db3fec92b6ceb62387
phish1995-06-24d1t02.flac:600410c388e6a9705e14dbceca345d14
phish1995-06-24d1t03.flac:97e3eec13b12accae944a788eaeaf301
phish1995-06-24d1t04.flac:1c6ff20ca683c40b8c38dd97cf0d07ce
phish1995-06-24d1t05.flac:885d7ef5386d4d147d432d7f566f04a1
phish1995-06-24d1t06.flac:22730be368edb7c689bf3c251c8c2838
phish1995-06-24d1t07.flac:c6345c73463e1015e974cb362b564e1b
phish1995-06-24d1t08.flac:fb9dc8ac49da71f978d73da362751321
phish1995-06-24d1t09.flac:b897674ed77aeef51857e359e53e8596
phish1995-06-24d1t10.flac:7fb419001c614f19ce5a9e7278da0021
phish1995-06-24d2t01.flac:6079db4a4a684f5c1e370c63a8b09b60
phish1995-06-24d2t02.flac:ba7ef0483e5fedc0b743fe0dcbf870ae
phish1995-06-24d2t03.flac:2d3c858b7df9bc910e2ceb703418f89b
phish1995-06-24d2t04.flac:8311a06aeb85d5f20071f054d0c8f2ca
phish1995-06-24d2t05.flac:98a294c933b45be6c0fc6537638dc970
phish1995-06-24d2t06.flac:177b28d5029b4ded51d33e10068576af
phish1995-06-24d2t07.flac:3d11964e0e5c8752de50b5fb1d956b0b
phish1995-06-24d2t08.flac:fe751f133bddb32b1ceca789f67e66bd
phish1995-06-24d2t09.flac:152a4036cba83bc6180c5668cbea77aa
phish1995-06-24d3t01.flac:c4560d8c102358610d26abeaa4fe1c09
phish1995-06-24d3t02.flac:4c2c25732ee4d828882d28379c49b43f
FLAC-md5
aa9d323a506f5be70b3b7099c14cd7a6 *phish1995-06-24d1t01.flac
9beacf7e60e4ed8d224b14bc7deb8f6c *phish1995-06-24d1t02.flac
e44db39a8572bb9b4860c0286ee457c4 *phish1995-06-24d1t03.flac
f47268f2a942c85edcb6012fb88a1d70 *phish1995-06-24d1t04.flac
b1887f1e7184258973f40e4550090d09 *phish1995-06-24d1t05.flac
a89bc3de48d8cb1aa73ca45a9348196f *phish1995-06-24d1t06.flac
d45ef9d118b29608ce11543c1886bfe9 *phish1995-06-24d1t07.flac
3ae2f2cd11b824dfdca461530957dfe6 *phish1995-06-24d1t08.flac
7d37e2160c1d6bb56ace2ed09b0d6e4a *phish1995-06-24d1t09.flac
224134a87b17a019984bba1d2a25e143 *phish1995-06-24d1t10.flac
fd37531fb5d3a363b5e18b03b848adde *phish1995-06-24d2t01.flac
14bdbfbb5315f61b1472edd6932c6c37 *phish1995-06-24d2t02.flac
1f4eb0db64c19eee61d453c24d26d2a9 *phish1995-06-24d2t03.flac
357f86c8a22904323e3700e41db42b3d *phish1995-06-24d2t04.flac
ebee5c0ebd311224f3653a50f24b8c75 *phish1995-06-24d2t05.flac
24ba6728cfd8601250a64cb6bfc16149 *phish1995-06-24d2t06.flac
69ff7df477bdb0e9850d6a5cf115b948 *phish1995-06-24d2t07.flac
a9acc49e2952b58e6857b1b042b6a362 *phish1995-06-24d2t08.flac
d3ac7cd0c431fee148f5257bacae36f5 *phish1995-06-24d2t09.flac
8d4ed7d042d2b12fee7cb8fc54a7b54c *phish1995-06-24d3t01.flac
2e2e8c89083deca78d6d844a07c1fd72 *phish1995-06-24d3t02.flac

Comments
Add Comment
Other Sources (comments)
AKG 460 (cardioid) > Teac >... (0) Neumann U87; DA-20 mkII >... (1) flac16; AKG C-1000;... (0) flac16; AKG... (0) flac16, 48kHz; AKG... (0)
Date User Comment