Browse Collections Artists Sources   Search Dates

Add Show    List Management    Help


Phish 12/30/95
Madison Square Garden, New York, NY
Comments Add Comment    Source Collectors    Add to Collection    Add to Want List    History
Source # 123637 Other Sources
Entered by Jason Sobel
Checksums FFP , FLAC-md5
Disc Counts 0 / 0
Media Size Compressed: 924.78 MB (969703222 bytes)
Date Circulated
Date Added
01/28/2013
01/28/2013
Source Summary flac16; Schoeps CMC6/MK41 -> Sonosax SX-M2 -> Dat (48k); Tascam DA-20 -> Tascam SS-R05 -> Samplitude Professional v11.2.1 -> FLAC; Transferred by Charlie Miller 
Source Information - Download Text | Download Zip
Phish - December 30, 1995
Madison Square Garden - New York, NY

Recording Info:
Schoeps CMC6/MK41 -> Sonosax SX-M2 -> Dat (48k)

Transfer Info:
Dat (Tascam DA-20) -> Tascam SS-R05 -> Samplitude Professional v11.2.1 -> FLAC
(3 Discs Audio / 1 DVD FLAC)

All Transfers and Mastering By Charlie Miller
[email protected]
January 28, 2013

Notes:
-- Discs 2 and 3 are seamless
-- Ya Mar has an Auld Lang Syne tease
-- Run Like An Antelope has a Gimme Some Lovin' tease from Page

Set 1:
d1t01 - Prince Caspian ->
d1t02 - Also Sprach Zarathustra ->
d1t03 - Suzy Greenberg ->
d1t04 - David Bowie
d1t05 - Simple ->
d1t06 - It's Ice -> Kung -> It's Ice ->
d1t07 - The Man Who Stepped Into Yesterday ->
d1t08 - Avenu Malkenu ->
d1t09 - The Man Who Stepped Into Yesterday ->
d1t10 - Divided Sky
d1t11 - Sample In A Jar

Set 2:
d2t01 - Crowd Chess Move
d2t02 - Ya Mar
d2t03 - Free ->
d2t04 - Harry Hood ->
d2t05 - AC/DC Bag ->
d2t06 - Lifeboy
d2t07 - Scent Of A Mule ->
d2t08 - Cavern ->
d2t09 - Run Like An Antelope

Encore:
d3t01 - Crowd/Tuning
d3t02 - A Day In The Life


SHNTOOL OUTPUT:
    length     expanded size    cdr  WAVE problems  fmt   ratio  filename
     4:04.05       43053404 B   ---   --   ---xx   flac  0.5743  phish1995-12-30d1t01.flac
     4:57.10       52414364 B   ---   --   ---xx   flac  0.5658  phish1995-12-30d1t02.flac
     7:46.14       82235372 B   ---   --   ---xx   flac  0.5828  phish1995-12-30d1t03.flac
    14:08.30      149657804 B   ---   --   ---xx   flac  0.5826  phish1995-12-30d1t04.flac
     7:27.55       78980204 B   ---   --   ---xx   flac  0.5838  phish1995-12-30d1t05.flac
     9:22.50       99254444 B   ---   --   ---xx   flac  0.5634  phish1995-12-30d1t06.flac
     3:52.07       40941308 B   ---   --   ---xx   flac  0.4694  phish1995-12-30d1t07.flac
     3:08.53       33287900 B   ---   --   ---xx   flac  0.5589  phish1995-12-30d1t08.flac
     1:23.37       14728268 B   ---   --   ---xx   flac  0.4772  phish1995-12-30d1t09.flac
    15:59.17      169207628 B   ---   --   ---xx   flac  0.5591  phish1995-12-30d1t10.flac
     4:58.74       52741292 B   ---   --   ---xx   flac  0.5878  phish1995-12-30d1t11.flac
     0:44.35        7843964 B   ---   --   ---xx   flac  0.4737  phish1995-12-30d2t01.flac
     8:40.54       91855052 B   ---   --   ---xx   flac  0.5693  phish1995-12-30d2t02.flac
     8:47.57       93096908 B   ---   --   ---xx   flac  0.5614  phish1995-12-30d2t03.flac
    15:34.28      164823500 B   ---   --   ---xx   flac  0.5531  phish1995-12-30d2t04.flac
     9:00.58       95392460 B   ---   --   ---xx   flac  0.5757  phish1995-12-30d2t05.flac
     8:18.35       87929564 B   ---   --   ---xx   flac  0.5230  phish1995-12-30d2t06.flac
    13:27.53      142479500 B   ---   --   ---xx   flac  0.5103  phish1995-12-30d2t07.flac
     4:05.73       43389740 B   ---   --   ---xx   flac  0.6142  phish1995-12-30d2t08.flac
    10:28.24      110835692 B   ---   --   ---xx   flac  0.5794  phish1995-12-30d2t09.flac
     2:19.74       24693692 B   ---   --   ---xx   flac  0.5357  phish1995-12-30d3t01.flac
     4:55.47       52148588 B   ---   --   ---xx   flac  0.5859  phish1995-12-30d3t02.flac
   163:32.65     1730990648 B                            0.5602  (22 files)

Show Checksums
FFP
phish1995-12-30d1t01.flac:53c82008a42e3c7719a91c923dfdac86
phish1995-12-30d1t02.flac:e3802ac059823584fcd58d5cac4b23c0
phish1995-12-30d1t03.flac:93d7405f744b3551ebd61d905339cbb0
phish1995-12-30d1t04.flac:f26a889f2c2e51fbf3d39d1bc4e457cb
phish1995-12-30d1t05.flac:34e826ce0965d5a8f09f3460f6e062a6
phish1995-12-30d1t06.flac:65b0b4a2083ad0b7ac6d36938869765c
phish1995-12-30d1t07.flac:50ee45f367aecd1923b7bad48504c6cb
phish1995-12-30d1t08.flac:1dd17f90aa454e630076d30b0001fbf0
phish1995-12-30d1t09.flac:a1e5b871878fb654851551d7cc5c6eae
phish1995-12-30d1t10.flac:376c5fdefdb7cec04f32c0b36b22da4b
phish1995-12-30d1t11.flac:aeb9f590ab20e4ea1abb2ecbc31ff53e
phish1995-12-30d2t01.flac:68093784ee5e4e6226d358f31b06fbc4
phish1995-12-30d2t02.flac:1a4eee32900007abc4f33f9e1b6e90bd
phish1995-12-30d2t03.flac:fb4aba597b420197a159b698735b2bcb
phish1995-12-30d2t04.flac:1da7b529c4af1a3f23bc6a1b1fd66e6e
phish1995-12-30d2t05.flac:a3b622bd51292646412de4ee1663d31f
phish1995-12-30d2t06.flac:7f0b0c0aa8d64897a353e7f2d3fb1998
phish1995-12-30d2t07.flac:ad3ded5825da7a01e3f2062411c1281a
phish1995-12-30d2t08.flac:18a10da18e5228b5b2d336ccde97f09d
phish1995-12-30d2t09.flac:c4ad4db044b167522fb882bbee005069
phish1995-12-30d3t01.flac:cd20c348848a6a0071146e0efa27b196
phish1995-12-30d3t02.flac:c4025f5099303cc4f7869181da27d29a
FLAC-md5
fd9a1a40b154bc4afbe4314b99da4980 *phish1995-12-30d1t01.flac
1916504a03d91fa8ea7d0539c1302534 *phish1995-12-30d1t02.flac
66835955ac28e434030e1e16aa5d061d *phish1995-12-30d1t03.flac
b270d4a2d52848f3278b9623e236a80a *phish1995-12-30d1t04.flac
7856ca23710d4c20506362e6bafaa922 *phish1995-12-30d1t05.flac
4d5f0e01ec99a0f5f3c33ca2abfce6d7 *phish1995-12-30d1t06.flac
dea7c6f52f795d41763ca3a2d60bd7eb *phish1995-12-30d1t07.flac
6a1be23b89cd6ddd7d6dd60d24b48c87 *phish1995-12-30d1t08.flac
b3fd92397696c3fd369a1d41cdab2127 *phish1995-12-30d1t09.flac
345036e1a82045e35f7b5fc2af0eaef8 *phish1995-12-30d1t10.flac
4feff1343835b6ae2bd6791d66a12336 *phish1995-12-30d1t11.flac
85a22a560b893fb76b51002dd518b595 *phish1995-12-30d2t01.flac
35a9085d8a1e3a136d1eb6828391bd7a *phish1995-12-30d2t02.flac
e8dda1a34d73fefeaa06029955c9e0bc *phish1995-12-30d2t03.flac
400eb4869386df7c4d11a80e552ca863 *phish1995-12-30d2t04.flac
e99bba4b0c959a6f99bc1df9b36589d1 *phish1995-12-30d2t05.flac
c42fb31e49930fc16f1d916651e4e068 *phish1995-12-30d2t06.flac
c44ae36b77c8780e3d8b7cab49daa56b *phish1995-12-30d2t07.flac
5039fcf3ac0281d41cd04a3427d57f94 *phish1995-12-30d2t08.flac
9bbd2830312b8fc2a55ec5885efc1a52 *phish1995-12-30d2t09.flac
96a285631337d2db502af72bfb4cf75e *phish1995-12-30d3t01.flac
93ebde563af45a93fe5af83d029bc8e2 *phish1995-12-30d3t02.flac

Comments
Add Comment
Other Sources (comments)
akg 460b/ck63; transfer:... (1) AKG 460 Cards > 10ft XLR's... (2) Schoeps cmc641... (2) FOB Schoeps CMC5/mk4 >... (2) AKG 460b/ck61 > AKG b18 >... (0) AKG460b/ck63(hypercard) >... (0) Nakamichi CM300/cp4's>Sony... (0) Schoeps cmc6/mk4 > Aerco >... (1) Nuemann KM-184s > ??? >... (0) flac16 48kHz... (0) flac16 44.1kHz AKG... (0)
Date User Comment