Browse Collections Artists Sources   Search Dates

Add Show    List Management    Help


Phish 07/16/94
Summer Stage at Sugarbush North, Fayston, VT
Comments Add Comment    Source Collectors    Add to Collection    Add to Want List    History
Source # 123736 Other Sources
Entered by Jason Sobel
Checksums FFP , FLAC-md5
Disc Counts 0 / 0
Media Size Compressed: 885.54 MB (928561029 bytes)
Date Circulated
Date Added
02/07/2013
02/08/2013
Source Summary flac16; AKG 460/CK61 -> Dat (48k); Tascam DA-20 -> Tascam SS-R05 -> Samplitude Professional v11.2.1 -> FLAC; Transferred by Charlie Miller 
Source Information - Download Text | Download Zip
Phish - July 16, 1994
Summer Stage At Sugarbush - North Fayston, VT

Recording Info:
AKG 460/CK61 -> Dat (48k)

Transfer Info:
Dat (Tascam DA-20) -> Tascam SS-R05 -> Samplitude Professional v11.2.1 -> FLAC
(3 Discs Audio / 1 DVD FLAC)

All Transfers and Mastering By Charlie Miller
[email protected]
February 7, 2013

Notes:
-- Set 2 is seamless
-- The Dat had Andrew Miller's name on it, not sure if he taped it

Set 1:
d1t01 - Golgi Apparatus ->
d1t02 - Down With Disease ->
d1t03 - N2O2 ->
d1t04 - Stash
d1t05 - The Lizards
d1t06 - Cavern ->
d1t07 - The Horse ->
d1t08 - Silent In The Morning ->
d1t09 - Maze ->
d1t10 - Sparkle ->
d1t11 - Sample In A Jar

Set 2:
d2t01 - Run Like An Antelope ->
d2t02 - Catapult ->
d2t03 - Run Like An Antelope
d2t04 - Harpua ->
d2t05 - Also Sprach Zarathustra ->
d2t06 - Harpua ->
d2t07 - AC/DC Bag ->
d2t08 - Scent Of A Mule
d2t09 - Harry Hood
d3t01 - Contact ->
d3t02 - Chalk Dust Torture

Encore:
d3t03 - Suzy Greenberg


SHNTOOL OUTPUT:
    length     expanded size    cdr  WAVE problems  fmt   ratio  filename
     5:27.26       57743996 B   ---   --   ---xx   flac  0.5671  phish1994-07-16d1t01.flac
     5:49.00       61563644 B   ---   --   ---xx   flac  0.6178  phish1994-07-16d1t02.flac
     1:46.55       18827804 B   ---   --   ---xx   flac  0.5944  phish1994-07-16d1t03.flac
    10:27.21      110652236 B   ---   --   ---xx   flac  0.5886  phish1994-07-16d1t04.flac
     9:59.64      105814172 B   ---   --   ---xx   flac  0.5646  phish1994-07-16d1t05.flac
     4:12.46       44561036 B   ---   --   ---xx   flac  0.6284  phish1994-07-16d1t06.flac
     1:47.73       19046540 B   ---   --   ---xx   flac  0.4369  phish1994-07-16d1t07.flac
     4:54.13       51892220 B   ---   --   ---xx   flac  0.5584  phish1994-07-16d1t08.flac
    10:38.54      112670252 B   ---   --   ---xx   flac  0.5863  phish1994-07-16d1t09.flac
     3:43.63       39485420 B   ---   --   ---xx   flac  0.5719  phish1994-07-16d1t10.flac
     5:00.46       53028236 B   ---   --   ---xx   flac  0.6050  phish1994-07-16d1t11.flac
     9:27.23      100072940 B   ---   --   ---xx   flac  0.5609  phish1994-07-16d2t01.flac
     2:03.60       21838364 B   ---   --   ---xx   flac  0.5323  phish1994-07-16d2t02.flac
     7:52.08       83279660 B   ---   --   ---xx   flac  0.5991  phish1994-07-16d2t03.flac
     8:14.50       87259244 B   ---   --   ---xx   flac  0.5111  phish1994-07-16d2t04.flac
     3:07.45       33092684 B   ---   --   ---xx   flac  0.5694  phish1994-07-16d2t05.flac
     6:12.69       65783132 B   ---   --   ---xx   flac  0.5354  phish1994-07-16d2t06.flac
     7:47.04       82388252 B   ---   --   ---xx   flac  0.5698  phish1994-07-16d2t07.flac
     7:57.63       84291020 B   ---   --   ---xx   flac  0.5144  phish1994-07-16d2t08.flac
    16:04.73      170221340 B   ---   --   ---xx   flac  0.5245  phish1994-07-16d2t09.flac
     6:17.72       66672188 B   ---   --   ---xx   flac  0.4910  phish1994-07-16d3t01.flac
    10:58.01      116073596 B   ---   --   ---xx   flac  0.5767  phish1994-07-16d3t02.flac
     6:38.59       70346012 B   ---   --   ---xx   flac  0.5703  phish1994-07-16d3t03.flac
   156:31.13     1656603988 B                            0.5605  (23 files)

Show Checksums
FFP
phish1994-07-16d1t01.flac:287363d0e685220557c3dc13ae3b545e
phish1994-07-16d1t02.flac:e3863891e4e7aea650077a456194a43e
phish1994-07-16d1t03.flac:abbf2a6307641384cfe41dbe16e08ddf
phish1994-07-16d1t04.flac:9b8098f97bd42e11c566b77af0a02a7b
phish1994-07-16d1t05.flac:b3ae496924456c06cb67ddf328629bf3
phish1994-07-16d1t06.flac:ecdd342555adc943835926cedf9bf53e
phish1994-07-16d1t07.flac:3f3c22bdbbb9a04c028241808caf9862
phish1994-07-16d1t08.flac:42ecdc1c11c5bd40e1d86e4f548c8054
phish1994-07-16d1t09.flac:435a8f8973e0731558e72d50bfcaf98f
phish1994-07-16d1t10.flac:f72ddf452b0d1fcfa20c7be93393e704
phish1994-07-16d1t11.flac:2117ee0f58e3073cb3dd2ffd84c118f4
phish1994-07-16d2t01.flac:ee57c6af1091e65150ea3b7c14038de2
phish1994-07-16d2t02.flac:2dfe9900b7ee8f8ad61f69d0df903272
phish1994-07-16d2t03.flac:475ae03f3f5d2234bb9e670a7a965e7b
phish1994-07-16d2t04.flac:493f44a734653d2a3fb4637624b11360
phish1994-07-16d2t05.flac:80538ea0dd3a9a4ca7602112818d1664
phish1994-07-16d2t06.flac:5b8fe2bd0affc9315728cc41ef60fd5d
phish1994-07-16d2t07.flac:59a9d836d943e9cc265c811f59f950c7
phish1994-07-16d2t08.flac:7e66875e42a9b48ffb64f0cf97bdd21c
phish1994-07-16d2t09.flac:7aed23a82cc6fab7b915c48d7e97e928
phish1994-07-16d3t01.flac:93d29fd534f1d8ee6642fe79bac5b96e
phish1994-07-16d3t02.flac:115fc7407376b411e4034f03ecd03cd1
phish1994-07-16d3t03.flac:30ab0558b1a082264fcbfd94e1d9b435
FLAC-md5
7f0438a35661bfa8f412d4b3a8b5f146 *phish1994-07-16d1t01.flac
ee0f4286344060bd6ffaaf0954a7d34b *phish1994-07-16d1t02.flac
251242e3137f50dedf17a8bfd956b6ea *phish1994-07-16d1t03.flac
0ca60b085ee58f4c6a73c7eaaba12fba *phish1994-07-16d1t04.flac
f456076264aed61ba84ab20e33537151 *phish1994-07-16d1t05.flac
776457995c8e25669f7dbc0cfcbbd57e *phish1994-07-16d1t06.flac
38b82aecdd5351ab6d0d27f19e444bd9 *phish1994-07-16d1t07.flac
c48b52f67f807503ce14459d47f39d8b *phish1994-07-16d1t08.flac
19c829e15d3f96e74bc3f9a631dfa7fa *phish1994-07-16d1t09.flac
3abe68b12100559e57146e3c3c9be448 *phish1994-07-16d1t10.flac
89d4af0f157767f051a253a94bfecee5 *phish1994-07-16d1t11.flac
ffd4916deba86973909107999fc9ae67 *phish1994-07-16d2t01.flac
959f18232caa9d46fb50c6c9159ab5fd *phish1994-07-16d2t02.flac
37717ce3da7facf8de953723a8b87634 *phish1994-07-16d2t03.flac
8cfd3020697a7fee9232fb4416711323 *phish1994-07-16d2t04.flac
948c0f96e5b97be9fc74effc15d34074 *phish1994-07-16d2t05.flac
ebe11626cb6da0fd327c57c8f75241fe *phish1994-07-16d2t06.flac
d1137d1c8deb5a0f47949b4ff17f0646 *phish1994-07-16d2t07.flac
5ccdbf9125ddad2ba851e47be8aeb663 *phish1994-07-16d2t08.flac
c08a82be5bbfc349a6fcddc97b5836d3 *phish1994-07-16d2t09.flac
1e99b170737de6b0c535102e6e91bb77 *phish1994-07-16d3t01.flac
09b54c4dc852f5be8a2087b6420f8d0a *phish1994-07-16d3t02.flac
dae1c0f9f8eebad61c553429cdbf3c80 *phish1994-07-16d3t03.flac

Comments
Add Comment
Other Sources (comments)
Set 2 only; Schoeps... (1) FOB Schoeps CMC5/mk4 >... (4)
Date User Comment