Browse Collections Artists Sources   Search Dates

Add Show    List Management    Help


Grateful Dead 09/01/79
Holleder Memorial Stadium, Rochester, NY
Comments Add Comment    Source Collectors    Add to Collection    Add to Want List    History
Source # 123742 Other Sources
Entered by Matt Vernon
Checksums ffp , flac-md5
Disc Counts 0 / 0
Media Size Compressed: 947.84 MB (993878653 bytes)
Uncompressed: 1.54 GB (1654211784 bytes)
Date Circulated
Date Added
02/07/2013
02/08/2013
Source Summary flac16; Recording Info: SBD -> Cassette Master (Dolby B) -> Cassette (Dolby C) -> TC2000 EQ (24bit) -> Sonic Solutions -> CD; Transfer Info: CD -> Adobe Audition v3.0 -> Samplitude Professional v11.2.1 -> FLAC; All Transfers and Mastering By Charlie Miller 
  Archive
Source Information - Download Text | Download Zip
Grateful Dead - September 1, 1979
Holleder Stadium - Rochester, NY

Recording Info:
SBD -> Cassette Master (Dolby B) -> Cassette (Dolby C) ->
TC2000 EQ (24bit) -> Sonic Solutions -> CD

Transfer Info:
CD -> Adobe Audition v3.0 -> Samplitude Professional v11.2.1 -> FLAC
(2 Discs Audio / 1 DVD FLAC)

All Transfers and Mastering By Charlie Miller
[email protected]
February 7, 2013

Patch Info:
(FOB) Nakamichi 700 -> Cassette Master (shnid=119965) supplies:
Mississippi Half-Step Uptown Toodeloo (0:00 - 0:19)
Looks Like Rain (0:00 - 0:23)
Space (5:12 - end of track)
Wharf Rat (0:00 - 0:17)
Post Show Crowd (0:00 - 0:19)

Notes:
-- Encore on end of Set 1 to fit show onto 2 discs
-- Set 2 and Encore are seamlss
-- Thanks to David Gans for the source discs
-- Thanks to Joe B. Jones for his help with the pitch correction

Set 1:
d1t01 - Mississippi Half-Step Uptown Toodeloo ->
d1t02 - Franklin's Tower
d1t03 - Me And My Uncle ->
d1t04 - Big River
d1t05 - Friend Of The Devil
d1t06 - Looks Like Rain
d1t07 - Don't Ease Me In
d1t08 - Lost Sailor ->
d1t09 - Saint Of Circumstance

Set 2:
d2t01 - Scarlet Begonias ->
d2t02 - Fire On The Mountain ->
d2t03 - Drums ->
d2t04 - Space ->
d2t05 - Wharf Rat ->
d2t06 - I Need A Miracle ->
d2t07 - Bertha ->
d2t08 - Good Lovin'

Encore:
d1t10 - One More Saturday Night


SHNTOOL OUTPUT:
    length     expanded size    cdr  WAVE problems  fmt   ratio  filename
    10:20.52      109490348 B   ---   --   ---xx   flac  0.5994  gd79-09-01d1t01.flac
    14:30.59      153606812 B   ---   --   ---xx   flac  0.5796  gd79-09-01d1t02.flac
     3:14.51       34341596 B   ---   --   ---xx   flac  0.6372  gd79-09-01d1t03.flac
     7:01.29       74332652 B   ---   --   ---xx   flac  0.6085  gd79-09-01d1t04.flac
     9:55.20      105005084 B   ---   --   ---xx   flac  0.6081  gd79-09-01d1t05.flac
     9:56.59      105273212 B   ---   --   ---xx   flac  0.5659  gd79-09-01d1t06.flac
     7:03.07       74633708 B   ---   --   ---xx   flac  0.5455  gd79-09-01d1t07.flac
     6:42.09       70934012 B   ---   --   ---xx   flac  0.6146  gd79-09-01d1t08.flac
     6:47.20       71841884 B   ---   --   ---xx   flac  0.6565  gd79-09-01d1t09.flac
     5:12.45       55142684 B   ---   --   ---xx   flac  0.6402  gd79-09-01d1t10.flac
    14:07.53      149535500 B   ---   --   ---xx   flac  0.6176  gd79-09-01d2t01.flac
    16:41.70      176741084 B   ---   --   ---xx   flac  0.5999  gd79-09-01d2t02.flac
     9:31.03      100731500 B   ---   --   ---xx   flac  0.5286  gd79-09-01d2t03.flac
     5:28.01       57861596 B   ---   --   ---xx   flac  0.5936  gd79-09-01d2t04.flac
    10:23.32      109972508 B   ---   --   ---xx   flac  0.5882  gd79-09-01d2t05.flac
     4:41.10       49591964 B   ---   --   ---xx   flac  0.6357  gd79-09-01d2t06.flac
     7:14.61       76701116 B   ---   --   ---xx   flac  0.6471  gd79-09-01d2t07.flac
     7:24.65       78474524 B   ---   --   ---xx   flac  0.6379  gd79-09-01d2t08.flac
   156:17.46     1654211784 B                            0.6008  (18 files)


Show Checksums
ffp
gd79-09-01d1t01.flac:d0f1b5de9864b275e7d13fd2610b82e2
gd79-09-01d1t02.flac:706cf7f9da5d83974a10dada57d69200
gd79-09-01d1t03.flac:908791a344f84b901e426ebe4a537469
gd79-09-01d1t04.flac:a5e7e691d344c59820704a4b609d9a77
gd79-09-01d1t05.flac:5283559eaefde35b24a04e66f0070fef
gd79-09-01d1t06.flac:93bee5aeb8129b8068c0a5bee61caf1f
gd79-09-01d1t07.flac:f5f4f08489995418aed544833e3ac980
gd79-09-01d1t08.flac:1051db5b6e7cbb811f70cba6153d8b18
gd79-09-01d1t09.flac:f07300c82ffbc619857bfaf1e46d3b95
gd79-09-01d1t10.flac:7a985210cf446fb331e471377615c311
gd79-09-01d2t01.flac:e49f98a3548e19a0d41f1eb14e2c4422
gd79-09-01d2t02.flac:97109ddd6f1d9a432974b7ecd8ef412a
gd79-09-01d2t03.flac:43f4ed1df11a7952385ddb36d0ef7b03
gd79-09-01d2t04.flac:02c5b6d0baacd728e06ece2842e8b3ca
gd79-09-01d2t05.flac:66e0ec8418bcdfc585f72263172110b8
gd79-09-01d2t06.flac:b164db73f99bbb58ae9a9b4edf671791
gd79-09-01d2t07.flac:bf218a7bb02c1fc6937f741f676a64d2
gd79-09-01d2t08.flac:ef0e761191a575db54d688e110710e90
flac-md5
eaa3dd79722fb88b3e8c346f8d09f2c9 *gd79-09-01d1t01.flac
a05722232f991c1f8b5358e724e3cd1d *gd79-09-01d1t02.flac
ef3e9cf64b4631f9b26412061407c1ac *gd79-09-01d1t03.flac
22aaa85c63fed1f16ffa87b2a3e20997 *gd79-09-01d1t04.flac
d0b2d93ff4f132f4b1ef443618b9dbe8 *gd79-09-01d1t05.flac
002dc9f3335a54ea6ed6cc673facec61 *gd79-09-01d1t06.flac
361750594ed4a9804b00098cfbab343a *gd79-09-01d1t07.flac
006c276ac9c384f8920eafbeb7e68ba1 *gd79-09-01d1t08.flac
f10622eef03e6b44528e2424e271424c *gd79-09-01d1t09.flac
1acea098f65e1a9a13062fac685a83ea *gd79-09-01d1t10.flac
f3d5fdd52733cc519e7c8b171243f015 *gd79-09-01d2t01.flac
298c019a51531e6330eb63e8d33ecd0a *gd79-09-01d2t02.flac
c1510fb5def20a11caff4a3748efa7d7 *gd79-09-01d2t03.flac
03c2cfd109bccc076883a04548aa00e3 *gd79-09-01d2t04.flac
e263d1b8cfd9600d695391d40a002ed5 *gd79-09-01d2t05.flac
3f8d9bc3917a9afaf7199410f85b641c *gd79-09-01d2t06.flac
98ccec61aac3349068725a8f8344e0eb *gd79-09-01d2t07.flac
1ac0d33d8a9a4ed8f21f3b818b2f3834 *gd79-09-01d2t08.flac

Comments
Add Comment
Other Sources (comments)
AUD>MC>DAT>CDR; via Paul B;... (1) master SBD cassette (Dolby... (0) flac24; Recording... (0) flac16; Recording... (0) flac24; AUD: 2x AKG... (0) flac16; AUD: 2x AKG... (0) flac24; Source:... (0)
Date User Comment