Browse Collections Artists Sources   Search Dates

Add Show    List Management    Help


Phish 12/02/97
The Spectrum, Philadelphia, PA
Comments Add Comment    Source Collectors    Add to Collection    Add to Want List    History
Source # 123763 Other Sources
Entered by Jason Sobel
Checksums FFP , FLAC-md5
Disc Counts 0 / 0
Media Size Compressed: 900.94 MB (944703010 bytes)
Date Circulated
Date Added
02/09/2013
02/09/2013
Source Summary flac16; B+K 4021 -> Apogee AD1000 -> HHb Portadat PDR 1000 (44.1k); Tascam DA-20 -> Tascam SS-R05 -> Samplitude Professional v11.2.1 -> FLAC; Taped by Eric Vandercar; Transferred by Charlie Miller 
Source Information - Download Text | Download Zip
Phish - December 2, 1997
CoreStates Spectrum - Philadelphia, PA

Recording Info:
B+K 4021 -> Apogee AD1000 -> Dat (HHb Portadat PDR 1000/44.1k)

Transfer Info:
Dat (Tascam DA-20) -> Tascam SS-R05 -> Samplitude Professional v11.2.1 -> FLAC
(3 Discs Audio / 1 DVD FLAC)

All Transfers and Mastering By Charlie Miller
[email protected]
February 8, 2013

Notes:
-- Taped by Eric Vandercar
-- Discs 2 and 3 are seamless
-- Recorded Row 1 Taper Section (Mics 12 Feet/60 Degrees)

Set 1:
d1t01 - Buried Alive ->
d1t02 - Down With Disease ->
d1t03 - Makisupa Policeman
d1t04 - Chalk Dust Torture
d1t05 - Ghost ->
d1t06 - Divided Sky
d1t07 - Dirt ->
d1t08 - Taste
d1t09 - The Star Spangled Banner

Set 2:
d2t01 - Mike's Song ->
d2t02 - Simple ->
d2t03 - Dog Faced Boy ->
d2t04 - Ya Mar ->
d2t05 - Weekapaug Groove
d2t06 - Bouncing Around The Room
d2t07 - Character Zero

Encore:
d3t01 - Ginseng Sullivan ->
d3t02 - Sample In A Jar


SHNTOOL OUTPUT:
    length     expanded size    cdr  WAVE problems  fmt   ratio  filename
     3:29.69       37029932 B   ---   --   ---xx   flac  0.5351  phish1997-12-02d1t01.flac
    10:13.47      108243788 B   ---   --   ---xx   flac  0.5631  phish1997-12-02d1t02.flac
     6:06.14       64595372 B   ---   --   ---xx   flac  0.5166  phish1997-12-02d1t03.flac
     8:01.42       84947228 B   ---   --   ---xx   flac  0.5853  phish1997-12-02d1t04.flac
    12:45.06      134960156 B   ---   --   ---xx   flac  0.5480  phish1997-12-02d1t05.flac
    15:33.33      164658860 B   ---   --   ---xx   flac  0.5592  phish1997-12-02d1t06.flac
     4:17.36       45419516 B   ---   --   ---xx   flac  0.5508  phish1997-12-02d1t07.flac
     9:40.04      102321452 B   ---   --   ---xx   flac  0.5610  phish1997-12-02d1t08.flac
     1:19.39       14027372 B   ---   --   ---xx   flac  0.5144  phish1997-12-02d1t09.flac
    20:14.35      214231964 B   ---   --   ---xx   flac  0.5595  phish1997-12-02d2t01.flac
     9:58.01      105489596 B   ---   --   ---xx   flac  0.5373  phish1997-12-02d2t02.flac
     5:44.20       60728684 B   ---   --   ---xx   flac  0.4798  phish1997-12-02d2t03.flac
    13:59.22      148051388 B   ---   --   ---xx   flac  0.5486  phish1997-12-02d2t04.flac
    15:34.11      164783516 B   ---   --   ---xx   flac  0.5907  phish1997-12-02d2t05.flac
     3:52.44       41028332 B   ---   --   ---xx   flac  0.5890  phish1997-12-02d2t06.flac
     9:10.42       97118828 B   ---   --   ---xx   flac  0.5934  phish1997-12-02d2t07.flac
     3:48.24       40275692 B   ---   --   ---xx   flac  0.5822  phish1997-12-02d3t01.flac
     5:38.57       59757308 B   ---   --   ---xx   flac  0.5972  phish1997-12-02d3t02.flac
   159:27.21     1687668984 B                            0.5598  (18 files)


Show Checksums
FFP
phish1997-12-02d1t01.flac:7439ef097e32831f0b29996c0f52ba6e
phish1997-12-02d1t02.flac:777b9c88eaffd149e0ae14d7027444b1
phish1997-12-02d1t03.flac:72f66aef824bb94fadad982c43ddf576
phish1997-12-02d1t04.flac:b77666c82b00c908219840047dfa4206
phish1997-12-02d1t05.flac:5adb4e809f0f71929357dcb6187a5c53
phish1997-12-02d1t06.flac:fbdf3c03678994ab6077b1a4b97a0243
phish1997-12-02d1t07.flac:f92c4518983156564046b8c694d2f6dc
phish1997-12-02d1t08.flac:efb92a3bfdf07eb7b66bf40b64d9be3d
phish1997-12-02d1t09.flac:d75009597c5e52eea789c0ca4c69806a
phish1997-12-02d2t01.flac:c1128e351092c9749a37be0cf1ff5cd1
phish1997-12-02d2t02.flac:f34e3a4410ef92ab6f7c4656c21ed381
phish1997-12-02d2t03.flac:ec06f0369cbfb27c85921056232f5a43
phish1997-12-02d2t04.flac:591f9ae4949eedb230f96a13ac76b2fd
phish1997-12-02d2t05.flac:81dc5da37bfb3c348a8970b13e66f5fe
phish1997-12-02d2t06.flac:1283e0b26f407f7873cca8862867848b
phish1997-12-02d2t07.flac:50ae9e3d4a3bba70381088eb5f40e5bc
phish1997-12-02d3t01.flac:aec14db1a770d3b998f675ecbe0b214b
phish1997-12-02d3t02.flac:ceaf56b7e4b7f688dfa94fa83874fc2b
FLAC-md5
5c6b3f0cbb5aac13815e0c5d67f35588 *phish1997-12-02d1t01.flac
7011539e0721de961ca6cf8e7121e178 *phish1997-12-02d1t02.flac
aa48f633801fc0ba31c5818b13ed3c78 *phish1997-12-02d1t03.flac
40d52024b23dfec27a8359d90c42c270 *phish1997-12-02d1t04.flac
944c36b9efcb61c3ba4ba117c4be7152 *phish1997-12-02d1t05.flac
2d0e8238d9435d64be1e30f1ffceea3f *phish1997-12-02d1t06.flac
c1893aa07f594c0736a9554cae0b42ef *phish1997-12-02d1t07.flac
9dc7359cdb9437790ae9ff83ec311d46 *phish1997-12-02d1t08.flac
b59a697d94223be2fde0bdc9f871e3fd *phish1997-12-02d1t09.flac
90215cd6c7d79931ba7206b6d1f31ead *phish1997-12-02d2t01.flac
85e2c313de0f494a6fe3e9bf4091fcd3 *phish1997-12-02d2t02.flac
80b11284d59b91048855536c77e59863 *phish1997-12-02d2t03.flac
bd0533095bbac85ab8042a6af40c69b0 *phish1997-12-02d2t04.flac
f719b6c79a032f856922d8f097d7ffd0 *phish1997-12-02d2t05.flac
1f0a4fe03e18cd4edec47c21f40c451c *phish1997-12-02d2t06.flac
397fcb3b889a3c672f7ebf9d7b560a25 *phish1997-12-02d2t07.flac
f065a55e60afb066669762617b0ce2da *phish1997-12-02d3t01.flac
ffe72d639b96d28657bb6e54fd1c256a *phish1997-12-02d3t02.flac

Comments
Add Comment
Other Sources (comments)
Neumann U87> SX-M2> DAP1;... (0) Schoeps CMC6/MK41> Sonosax>... (0) Source: Schoeps CMC641 >... (1) flac16 Schoeps... (0) flac16 48kHz... (0) flac16 2x Senheiser... (0)
Date User Comment