Browse Collections Artists Sources   Search Dates

Add Show    List Management    Help


Phish 10/15/98
Fillmore Auditorium, San Francisco, CA
Comments Add Comment    Source Collectors    Add to Collection    Add to Want List    History
Source # 123812 Other Sources
Entered by Jason Sobel
Checksums FFP , FLAC-md5
Disc Counts 0 / 0
Media Size
Date Circulated
Date Added
02/11/2013
02/11/2013
Source Summary flac16; Microtech Gefell M300 -> Denecke PS-1 -> Zefiro Inbox -> Dat (44.1k); Tascam DA-20 -> Tascam SS-R05 -> Samplitude Professional v11.2.1 -> FLAC; Transferred by Charlie Miller 
Source Information - Download Text | Download Zip
Phish - October 15, 1998
The Fillmore - San Francisco, CA

Recording Info:
Microtech Gefell M300 -> Denecke PS-1 -> Zefiro Inbox -> Dat (44.1k)

Transfer Info:
Dat (Tascam DA-20) -> Tascam SS-R05 -> Samplitude Professional v11.2.1 -> FLAC
(3 Discs Audio / 1 DVD FLAC)

All Transfers and Mastering By Charlie Miller
[email protected]
February 11, 2013

Notes:
-- All disc changes are seamless

Set 1:
d1t01 - Ghost ->
d1t02 - Water In The Sky
d1t03 - Wolfman's Brother
d1t04 - Gumbo
d1t05 - David Bowie
d1t06 - Brian And Robert
d2t01 - Reba ->
d2t02 - Character Zero

Set 2:
d2t03 - My Soul ->
d2t04 - Chalk Dust Torture
d2t05 - Roggae
d2t06 - The Moma Dance
d3t01 - Wading In The Velvet Sea ->
d3t02 - Prince Caspian ->
d3t03 - Frankie Says
d3t04 - Birds Of A Feather
d3t05 - Lawn Boy
d3t06 - Harry Hood

Encore:
d3t07 - Dirt
d3t08 - Limb By Limb


SHNTOOL OUTPUT:
    length     expanded size    cdr  WAVE problems  fmt   ratio  filename
    16:31.55      174941804 B   ---   --   ---xx   flac  0.5382  ph1998-10-15d1t01.flac
     4:11.61       44419916 B   ---   --   ---xx   flac  0.5331  ph1998-10-15d1t02.flac
    13:02.65      138097724 B   ---   --   ---xx   flac  0.5228  ph1998-10-15d1t03.flac
     9:13.16       97586876 B   ---   --   ---xx   flac  0.5278  ph1998-10-15d1t04.flac
    16:52.10      178540364 B   ---   --   ---xx   flac  0.5311  ph1998-10-15d1t05.flac
     4:07.60       43711964 B   ---   --   ---xx   flac  0.4599  ph1998-10-15d1t06.flac
    18:21.32      194291708 B   ---   --   ---xx   flac  0.5267  ph1998-10-15d2t01.flac
     9:05.11       96163916 B   ---   --   ---xx   flac  0.5691  ph1998-10-15d2t02.flac
     6:26.07       68106908 B   ---   --   ---xx   flac  0.5513  ph1998-10-15d2t03.flac
     7:57.55       84272204 B   ---   --   ---xx   flac  0.5703  ph1998-10-15d2t04.flac
     8:47.11       92988716 B   ---   --   ---xx   flac  0.5162  ph1998-10-15d2t05.flac
     8:54.28       94263500 B   ---   --   ---xx   flac  0.5495  ph1998-10-15d2t06.flac
     8:19.48       88136540 B   ---   --   ---xx   flac  0.5019  ph1998-10-15d3t01.flac
     9:43.02      102845948 B   ---   --   ---xx   flac  0.5586  ph1998-10-15d3t02.flac
     5:24.22       57205388 B   ---   --   ---xx   flac  0.5106  ph1998-10-15d3t03.flac
     8:29.24       89844092 B   ---   --   ---xx   flac  0.5533  ph1998-10-15d3t04.flac
     4:00.14       42368972 B   ---   --   ---xx   flac  0.4815  ph1998-10-15d3t05.flac
    18:39.06      197405756 B   ---   --   ---xx   flac  0.4917  ph1998-10-15d3t06.flac
     3:59.49       42274892 B   ---   --   ---xx   flac  0.5115  ph1998-10-15d3t07.flac
     8:47.66       93118076 B   ---   --   ---xx   flac  0.5498  ph1998-10-15d3t08.flac
   190:54.42     2020585264 B                            0.5295  (20 files)

Show Checksums
FFP
ph1998-10-15d1t01.flac:8a36a167b794801fd7a2cd056abd43cf
ph1998-10-15d1t02.flac:7b090c5fa864935f05cc779df9f68e4e
ph1998-10-15d1t03.flac:9214a2ca1bc8af0a56287f19b2afcf7f
ph1998-10-15d1t04.flac:1b6767ada8a81c7b938b7941308ff64a
ph1998-10-15d1t05.flac:b6c6d11c4b667705d4a94f18b1a609d8
ph1998-10-15d1t06.flac:b45559655882dd4c1d6ad7bf9459ebb4
ph1998-10-15d2t01.flac:11f47f432838336b6440200c82602c0a
ph1998-10-15d2t02.flac:8e902c43cddd8adea4418583270ae700
ph1998-10-15d2t03.flac:52e8a2497671aeca8f956d8b5b8db568
ph1998-10-15d2t04.flac:0522e7f306880f22290fd861560bb283
ph1998-10-15d2t05.flac:69539c727fb4a8fa1677f97fab86a6c5
ph1998-10-15d2t06.flac:1cba12dd9c83213a59930ca7e11aae6d
ph1998-10-15d3t01.flac:d27fec3b4ef1000a9c8a2b763e45733b
ph1998-10-15d3t02.flac:ce2d78cb5a2cd0811d3a364333ea0d0e
ph1998-10-15d3t03.flac:6a910306f6c63ec89681c38efdea2301
ph1998-10-15d3t04.flac:01724f70e1bbe739dc481b5c6acf83f4
ph1998-10-15d3t05.flac:cf96a8ee3ba31b790d085aba235fe899
ph1998-10-15d3t06.flac:8d9e331dd11ed3e611ff3c7819b105b9
ph1998-10-15d3t07.flac:85121ce36f883706aced235b9273db17
ph1998-10-15d3t08.flac:ff8e7b2fa706a1bd69a74c2a3ad7397f
FLAC-md5
f5928701bbc87e07cb18aa5341204bce *ph1998-10-15d1t01.flac
834d67c10835e82b5ddd0916c71eccbd *ph1998-10-15d1t02.flac
f8040d699601b20c6d905889b86fc7b2 *ph1998-10-15d1t03.flac
f0deeced6cdde44be8934ee593710c50 *ph1998-10-15d1t04.flac
051b90918e1dcd326903c6a951485ebc *ph1998-10-15d1t05.flac
7716cd4fc74261cdc1f778d98a145943 *ph1998-10-15d1t06.flac
ad6fbe533df3d3dea9c6d91ca01d5dfa *ph1998-10-15d2t01.flac
38ec996921df215ba8bdeffd24805597 *ph1998-10-15d2t02.flac
34a3eac446054f69f7baadbe78b58cd4 *ph1998-10-15d2t03.flac
07fd6bf2cbabffa443ce7ac7e7cd69e8 *ph1998-10-15d2t04.flac
83e1bd9d7e4079547ab2ee3f5ebab718 *ph1998-10-15d2t05.flac
519232433de540cc2df80c3ffcd18f0a *ph1998-10-15d2t06.flac
2d281466e98246f20d8362cb96084121 *ph1998-10-15d3t01.flac
acd61d59433d599c312e59707ad5dfbe *ph1998-10-15d3t02.flac
b23e449049a3df6348b163f8823a91f9 *ph1998-10-15d3t03.flac
cf4e66edd4b03826319f33c5a8d2ec8b *ph1998-10-15d3t04.flac
9a39fa4d043186e815281e7d7a522b71 *ph1998-10-15d3t05.flac
a481aea46473261ab26cd8a415973aeb *ph1998-10-15d3t06.flac
96633cf05a81ca0721b798e96e6ab17e *ph1998-10-15d3t07.flac
0d796c6cf95a0f6a9ac34f2ca6af4d93 *ph1998-10-15d3t08.flac

Comments
Add Comment
Other Sources (comments)
Schoeps MK5 > BRbox > Smb1... (0) AKG 414 (hyper) > Sonosax +... (2) flac16; FOB; Schoeps... (0)
Date User Comment