Browse Collections Artists Sources   Search Dates

Add Show    List Management    Help


Grateful Dead 03/03/81
Cleveland Music Hall, Cleveland, OH
Comments Add Comment    Source Collectors    Add to Collection    Add to Want List    History
Source # 123978 Other Sources
Entered by Matt Vernon
Checksums ffp , flac-md5
Disc Counts 0 / 0
Media Size Compressed: 955.91 MB (1002343103 bytes)
Uncompressed: 1.54 GB (1651394132 bytes)
Date Circulated
Date Added
02/26/2013
02/27/2013
Source Summary flac16; Recording Info: SBD -> Cassette Master -> Reel -> Dat (48k); Transfer Info: Dat (Sony R500) -> AIFF -> Adobe Audition v3 -> Samplitude Professional v11.2 -> FLAC; Dats Supplied By Rob Eaton; Transferred By Digitalrbb; Mastered By Charlie Miller 
  Archive
Source Information - Download Text | Download Zip
Grateful Dead - March 3, 1981
Cleveland Music Hall - Cleveland, OH

Recording Info:
SBD -> Cassette Master -> Reel -> Dat (48k)

Transfer Info:
Dat (Sony R500) -> AIFF -> Adobe Audition v3 -> Samplitude Professional v11.2 -> FLAC
(3 Discs Audio / 1 DVD FLAC)

Dats Supplied By Rob Eaton
Transferred By Digitalrbb
Mastered By Charlie Miller
[email protected]
February 26, 2013

Patch Info:
(FOB) Nakamichi 700 -> Cassette Master supplies:
Feel Like A Stranger (0:00 - 0:35)
Looks Like Rain (5:20 - 5:47)
Casey Jones (0:00 - 0:57)

Notes:
-- This is a fixed version of shnid=112777
-- Fixed flaws in Feel Like A Stranger and made corrections in info file
-- Set 2 is seamless
-- Thanks to Joe B. Jones for his help with the pitch correction

Set 1:
d1t01 - Feel Like A Stranger
d1t02 - Peggy-O
d1t03 - Me And My Uncle ->
d1t04 - Big River
d1t05 - Bird Song
d1t06 - Looks Like Rain
d1t07 - Big Railroad Blues
d1t08 - Little Red Rooster ->
d1t09 - Deal

Set 2:
d2t01 - China Cat Sunflower ->
d2t02 - I Know You Rider ->
d2t03 - Samson And Delilah
d2t04 - He's Gone ->
d2t05 - Drums ->
d3t01 - Lost Sailor ->
d3t02 - Saint Of Circumstance ->
d3t03 - Black Peter ->
d3t04 - Good Lovin'

Encore:
d3t05 - Casey Jones


SHNTOOL OUTPUT:
    length     expanded size    cdr  WAVE problems  fmt   ratio  filename
     9:00.55       95385404 B   ---   --   ---xx   flac  0.5932  gd81-03-03d1t01.flac
     8:40.69       91890332 B   ---   --   ---xx   flac  0.5905  gd81-03-03d1t02.flac
     3:03.35       32363564 B   ---   --   ---xx   flac  0.6195  gd81-03-03d1t03.flac
     5:34.18       58959980 B   ---   --   ---xx   flac  0.6096  gd81-03-03d1t04.flac
    11:32.04      122078252 B   ---   --   ---xx   flac  0.6160  gd81-03-03d1t05.flac
     8:23.40       88823324 B   ---   --   ---xx   flac  0.5929  gd81-03-03d1t06.flac
     4:40.54       49519052 B   ---   --   ---xx   flac  0.6877  gd81-03-03d1t07.flac
     9:44.37      103104668 B   ---   --   ---xx   flac  0.6422  gd81-03-03d1t08.flac
     7:10.47       75962588 B   ---   --   ---xx   flac  0.6629  gd81-03-03d1t09.flac
    10:48.29      114375452 B   ---   --   ---xx   flac  0.6070  gd81-03-03d2t01.flac
     5:39.39       59891372 B   ---   --   ---xx   flac  0.6258  gd81-03-03d2t02.flac
     7:57.69       84305132 B   ---   --   ---xx   flac  0.6168  gd81-03-03d2t03.flac
    16:19.71      172862636 B   ---   --   ---xx   flac  0.5889  gd81-03-03d2t04.flac
     9:31.69      100886732 B   ---   --   ---xx   flac  0.5474  gd81-03-03d2t05.flac
     7:01.51       74384396 B   ---   --   ---xx   flac  0.5850  gd81-03-03d3t01.flac
     6:59.38       74001020 B   ---   --   ---xx   flac  0.6199  gd81-03-03d3t02.flac
    10:19.12      109219868 B   ---   --   ---xx   flac  0.5932  gd81-03-03d3t03.flac
     8:17.21       87720236 B   ---   --   ---xx   flac  0.5977  gd81-03-03d3t04.flac
     5:15.40       55660124 B   ---   --   ---xx   flac  0.6194  gd81-03-03d3t05.flac
   156:01.48     1651394132 B                            0.6070  (19 files)


Show Checksums
ffp
gd81-03-03d1t01.flac:a4acf4256b06660a1176b600628bd397
gd81-03-03d1t02.flac:58b1755844a5b5f6b2a75b97e9ead6e8
gd81-03-03d1t03.flac:3a65a3afdaf05b4cde40acad4fb68c5b
gd81-03-03d1t04.flac:2ea95d60fd10b7b429e605b5d57444af
gd81-03-03d1t05.flac:59d2e77b45db810c60aff0166e0c013c
gd81-03-03d1t06.flac:39dcc1634a3703c8804113798205055b
gd81-03-03d1t07.flac:b97deb5c018fe1480031c7ed22cf8a65
gd81-03-03d1t08.flac:2d6ceaf46fcd19ff28f57abb4db169fe
gd81-03-03d1t09.flac:55e2185e6c88d21ad13861e8b1186eb7
gd81-03-03d2t01.flac:e0a3e176dbf750e388ffe60b672c005a
gd81-03-03d2t02.flac:922fe2bfce83a570217c7c5b62ea98d9
gd81-03-03d2t03.flac:36823e4fc77a4abeec02268af8b56c69
gd81-03-03d2t04.flac:e99e1a1bf5ec348816b53b097c41f8c5
gd81-03-03d2t05.flac:8c23271dc92e76b798a0c475bf119794
gd81-03-03d3t01.flac:e7f914eb4d5296cf22638daea1a2b735
gd81-03-03d3t02.flac:e6266a157c8e438a999a8a37ae258696
gd81-03-03d3t03.flac:43011c263777bcb4ddeb12942309d17a
gd81-03-03d3t04.flac:8973a2117c9b261d5994aaa069421f13
gd81-03-03d3t05.flac:c4a4038e7784341f41e71f5b32344042
flac-md5
6a9bf3512cb7c1a1953a62ee0f16a754 *gd81-03-03d1t01.flac
5769b2fdd7cfda500bb1c66ab8032fb2 *gd81-03-03d1t02.flac
a7c026595c78c27b06affb0f3ef45ce2 *gd81-03-03d1t03.flac
7e4b8364baf0ca6e29328ee0ae7edc4d *gd81-03-03d1t04.flac
3ecfdde0bacc2b39d175b53ac934bb6a *gd81-03-03d1t05.flac
0b912d1541621689f1c1cacc20699865 *gd81-03-03d1t06.flac
63b0dcae84922f54c94076459362dddb *gd81-03-03d1t07.flac
9287a0e4e9e60f252f4f429a294e92d0 *gd81-03-03d1t08.flac
3c2c09985bc75860daecb8afb8419156 *gd81-03-03d1t09.flac
8061212dcb1524e3c05db6e3743694b0 *gd81-03-03d2t01.flac
4878c709069efce7122eaaa899b4eaa3 *gd81-03-03d2t02.flac
70fee3f1ebaa4bc56532082e1a8f1138 *gd81-03-03d2t03.flac
9afca5fc65e3b74dab6489f1e17f4e0c *gd81-03-03d2t04.flac
350e6239596511a98a3ec286c0c8a510 *gd81-03-03d2t05.flac
53fcee9a687760649a260c95c8835832 *gd81-03-03d3t01.flac
ae2a354fd693758e8688b6238d6f349f *gd81-03-03d3t02.flac
030b67a1d40c18e4e2e3d1dc79a55fa3 *gd81-03-03d3t03.flac
e063d5982f2320404187e8793b3ff067 *gd81-03-03d3t04.flac
7e0493991f3902162e1a1a8f285f7332 *gd81-03-03d3t05.flac

Comments
Add Comment
Other Sources (comments)
aud> mics?> cassette... (0) Recording by Mark Horvath:... (1) Recording by Bob Wagner;... (2) flac16; Recording by... (0) flac16; Recording... (0) flac16; Recording... (2) flac16; Source Info:... (1) flac24; Source Info:... (1)
Date User Comment