Browse Collections Artists Sources   Search Dates

Add Show    List Management    Help


Grateful Dead 03/19/73
Nassau Veterans Memorial Coliseum, Uniondale, NY
Comments Add Comment    Source Collectors    Add to Collection    Add to Want List    History
Source # 123987 Other Sources
Entered by Matt Vernon
Checksums ffp , flac-md5
Disc Counts 0 / 0
Media Size Compressed: 750.04 MB (786474628 bytes)
Uncompressed: 1.23 GB (1322720860 bytes)
Date Circulated
Date Added
02/27/2013
02/28/2013
Source Summary flac16; Recording Info: SBD -> Master Reel -> Cassette -> Cassette -> Dat -> CD; Transfer Info: CD -> Samplitude Professional v11.2.1 -> Adobe Audition CS6 -> FLAC; All Transfers and Mastering By Charlie Miller 
  Archive
Source Information - Download Text | Download Zip
Grateful Dead - March 19, 1973
Nassau Coliseum - Uniondale, NY

Recording Info:
SBD -> Master Reel -> Cassette -> Cassette -> Dat -> CD

Transfer Info:
CD -> Samplitude Professional v11.2.1 -> Adobe Audition CS6 -> FLAC
(2 Discs Audio / 1 DVD FLAC)

All Transfers and Mastering By Charlie Miller
[email protected]
February 27, 2013

Patch Info:
Sony Mic -> Master Cassette -> Reel -> Cassette -> CD -> FLAC (shnid=97417) supplies:
The Other One (6:36 - 6:52)
Johnny B. Goode (3:19 - end of track)
Casey Jones (complete track)

Notes:
-- Disc change in seamless
-- This is a remaster of shnid=9987
-- Thanks to Joe B. Jones for his help with the pitch correction

Set 1:
d1t01 - Playing In The Band

Set 2:
d1t02 - Tuning
d1t03 - Loose Lucy
d1t04 - Me And My Uncle
d1t05 - Brown Eyed Women
d1t06 - Big River
d1t07 - Mississippi Half-Step Uptown Toodeloo ->
d1t08 - Stella Blue ->
d1t09 - Jack Straw
d2t01 - Truckin' ->
d2t02 - Nobody's Fault But Mine Jam ->
d2t03 - Drums ->
d2t04 - The Other One ->
d2t05 - Eyes Of The World ->
d2t06 - China Doll
d2t07 - Johnny B. Goode

Encore:
d2t08 - Casey Jones


SHNTOOL OUTPUT:
    length     expanded size    cdr  WAVE problems  fmt   ratio  filename
    16:14.27      171877148 B   ---   --   ---xx   flac  0.5499  gd73-03-19d1t01.flac
     2:01.70       21509084 B   ---   --   ---xx   flac  0.5340  gd73-03-19d1t02.flac
     7:43.59       81812012 B   ---   --   ---xx   flac  0.5948  gd73-03-19d1t03.flac
     3:21.66       35611676 B   ---   --   ---xx   flac  0.6017  gd73-03-19d1t04.flac
     5:46.09       61055612 B   ---   --   ---xx   flac  0.5901  gd73-03-19d1t05.flac
     5:53.52       62391548 B   ---   --   ---xx   flac  0.5935  gd73-03-19d1t06.flac
     7:36.42       80537228 B   ---   --   ---xx   flac  0.6124  gd73-03-19d1t07.flac
     7:41.11       81346316 B   ---   --   ---xx   flac  0.5792  gd73-03-19d1t08.flac
     6:57.52       73681148 B   ---   --   ---xx   flac  0.5838  gd73-03-19d1t09.flac
     9:10.57       97154108 B   ---   --   ---xx   flac  0.6210  gd73-03-19d2t01.flac
     3:27.66       36670076 B   ---   --   ---xx   flac  0.6169  gd73-03-19d2t02.flac
     2:19.72       24688988 B   ---   --   ---xx   flac  0.5911  gd73-03-19d2t03.flac
    11:48.74      125065292 B   ---   --   ---xx   flac  0.6193  gd73-03-19d2t04.flac
    16:50.66      178319276 B   ---   --   ---xx   flac  0.6145  gd73-03-19d2t05.flac
     7:38.47       80901788 B   ---   --   ---xx   flac  0.5843  gd73-03-19d2t06.flac
     3:59.16       42197276 B   ---   --   ---xx   flac  0.6063  gd73-03-19d2t07.flac
     6:24.70       67902284 B   ---   --   ---xx   flac  0.5956  gd73-03-19d2t08.flac
   124:58.31     1322720860 B                            0.5946  (17 files)


Show Checksums
ffp
gd73-03-19d1t01.flac:8ddb15490f4b6967ef5e9d921b575c1a
gd73-03-19d1t02.flac:9c65790ad5d9c64097c592ba066192bd
gd73-03-19d1t03.flac:90102bd95423431a886ef0dd4a26970a
gd73-03-19d1t04.flac:6e3a2f91c3cf8d435c5da5621a699182
gd73-03-19d1t05.flac:b5e8af4776d5c1503e85025cbf9e6c56
gd73-03-19d1t06.flac:23adb2cc22da620580a109a5a4cbf1dc
gd73-03-19d1t07.flac:a6cad49251614e40082529014d22357e
gd73-03-19d1t08.flac:16dfa387ef0eac2a4fbef0c5712497f4
gd73-03-19d1t09.flac:e9e03ca4e918d5f1e40b51b65d3d549a
gd73-03-19d2t01.flac:5661600c7698625779dbaa49b4778dc9
gd73-03-19d2t02.flac:3fb5dc2ed8ebf8a6449d2f66300cbe44
gd73-03-19d2t03.flac:273764d38975223a0aecf6efe11f8a76
gd73-03-19d2t04.flac:e490e7cf996914a9d6575fd3c4b9dfaa
gd73-03-19d2t05.flac:e71cc2aafcb37d9db3edb39555f40c4a
gd73-03-19d2t06.flac:86b47dd5f0e27e4915ab42eb2bd1d949
gd73-03-19d2t07.flac:cda8cc06fd37eca2352679b04fafbd9b
gd73-03-19d2t08.flac:84006a7aeb32d0c0cb26c44a09f4b2c3
flac-md5
cad6dc927c4e813e0206c10e6ee1af23 *gd73-03-19d1t01.flac
cedd326dde74be399e95589ef37c3ef6 *gd73-03-19d1t02.flac
743da8f54723cf0c21c254757f767676 *gd73-03-19d1t03.flac
7f92e4baf0a632bdbac75e2069b1e983 *gd73-03-19d1t04.flac
93af9d78946a7b8eb3673e6f20ba57d1 *gd73-03-19d1t05.flac
69a8c324a2be180f972cb81ecdef12cf *gd73-03-19d1t06.flac
7811177b1ab6d29a9d907b0d8ca3ba7d *gd73-03-19d1t07.flac
ea9086aa6cf124a8d365a0bd9601cac3 *gd73-03-19d1t08.flac
13d1879b947b57d2072e93e8b2bfa136 *gd73-03-19d1t09.flac
d47e417d760a0c3932d21007fdb53851 *gd73-03-19d2t01.flac
7145a5d9109b0b893dce9d26da357dd1 *gd73-03-19d2t02.flac
44974fa24098c3c3c2c6a0833c396998 *gd73-03-19d2t03.flac
9de610a16082bbdd0809a11717ee3d8b *gd73-03-19d2t04.flac
0fcff5c20277c02a220b23cecaa37090 *gd73-03-19d2t05.flac
ad604853233c944bc020d1530e0b7ec0 *gd73-03-19d2t06.flac
708ec694f599334d592326fa065baf77 *gd73-03-19d2t07.flac
59c170966de783c0a19afe95ec32f3b0 *gd73-03-19d2t08.flac

Comments
Add Comment
Other Sources (comments)
Playin', plus most of set... (6) flac16; Taper Gerry... (0) flac16; Taper: Dan... (0) flac24/96 ... (2) flac16; Recording... (1)
Date User Comment