Browse Collections Artists Sources   Search Dates

Add Show    List Management    Help


Grateful Dead 08/27/80
Pine Knob Music Theater, Clarkston, MI
Comments Add Comment    Source Collectors    Add to Collection    Add to Want List    History
Source # 123988 Other Sources
Entered by Matt Vernon
Checksums ffp , flac-md5
Disc Counts 0 / 0
Media Size Compressed: 0.98 GB (1056578292 bytes)
Uncompressed: 1.69 GB (1812821520 bytes)
Date Circulated
Date Added
02/27/2013
02/28/2013
Source Summary flac16; Recording Info: SBD -> Master Cassette -> Dat; Transfer Info: Dat -> Adobe Audition v3.0 -> Samplitude Professional v11.1 -> FLAC; All Transfers and Mastering By Charlie Miller 
  Archive
Source Information - Download Text | Download Zip
Grateful Dead - August 27, 1980
Pine Knob Music Theatre - Clarkston, MI

Recording Info:
SBD -> Master Cassette -> Dat

Transfer Info:
Dat -> Adobe Audition v3.0 -> Samplitude Professional v11.1 -> FLAC
(3 Discs Audio / 1 DVD FLAC)

All Transfers and Mastering By Charlie Miller
[email protected]
June 30, 2010

Patch Info:
Audience recording (shnid=12160) supplies:
Eyes Of The World (4:00 - 6:09)

Notes:
-- Set 2 is seamless
-- Thanks to Joe B. Jones for his help with the pitch correction

Set 1:
d1t01 - Promised Land
d1t02 - They Love Each Other
d1t03 - Mama Tried ->
d1t04 - Mexicali Blues
d1t05 - Tennessee Jed
d1t06 - New Minglewood Blues
d1t07 - Althea
d1t08 - Looks Like Rain
d1t09 - Big Railroad Blues
d1t10 - Feel Like A Stranger

Set 2:
d2t01 - China Cat Sunflower ->
d2t02 - I Know You Rider
d2t03 - C C Rider
d2t04 - High Time
d2t05 - Estimated Prophet ->
d2t06 - Eyes Of The World ->
d2t07 - Drums ->
d3t01 - Space ->
d3t02 - Not Fade Away ->
d3t03 - Stella Blue ->
d3t04 - I Need A Miracle ->
d3t05 - Bertha ->
d3t06 - Good Lovin'

Encore:
d3t07 - U.S. Blues


SHNTOOL OUTPUT:
    length     expanded size    cdr  WAVE problems  fmt   ratio  filename
     5:23.11       57003116 B   ---   --   ---xx   flac  0.5753  gd80-08-27d1t01.flac
     9:27.73      100190540 B   ---   --   ---xx   flac  0.5446  gd80-08-27d1t02.flac
     2:29.38       26373020 B   ---   --   ---xx   flac  0.6009  gd80-08-27d1t03.flac
     5:52.09       62114012 B   ---   --   ---xx   flac  0.5652  gd80-08-27d1t04.flac
     8:38.62       91521068 B   ---   --   ---xx   flac  0.6054  gd80-08-27d1t05.flac
     8:45.17       92650028 B   ---   --   ---xx   flac  0.6013  gd80-08-27d1t06.flac
     8:19.13       88054220 B   ---   --   ---xx   flac  0.5795  gd80-08-27d1t07.flac
    10:09.25      107486444 B   ---   --   ---xx   flac  0.5474  gd80-08-27d1t08.flac
     4:52.59       51647612 B   ---   --   ---xx   flac  0.5997  gd80-08-27d1t09.flac
     6:42.62       71058668 B   ---   --   ---xx   flac  0.6268  gd80-08-27d1t10.flac
     5:40.04       59985452 B   ---   --   ---xx   flac  0.6199  gd80-08-27d2t01.flac
     5:37.05       59458604 B   ---   --   ---xx   flac  0.6352  gd80-08-27d2t02.flac
    10:42.65      113401724 B   ---   --   ---xx   flac  0.5456  gd80-08-27d2t03.flac
     8:40.39       91819772 B   ---   --   ---xx   flac  0.5499  gd80-08-27d2t04.flac
    11:29.18      121581980 B   ---   --   ---xx   flac  0.6115  gd80-08-27d2t05.flac
     8:39.73       91723340 B   ---   --   ---xx   flac  0.6252  gd80-08-27d2t06.flac
    10:48.71      114474236 B   ---   --   ---xx   flac  0.5092  gd80-08-27d2t07.flac
     0:23.20        4104284 B   ---   --   ---xx   flac  0.5263  gd80-08-27d3t01.flac
     4:53.65       51838124 B   ---   --   ---xx   flac  0.5997  gd80-08-27d3t02.flac
     9:49.72      104068988 B   ---   --   ---xx   flac  0.5466  gd80-08-27d3t03.flac
     3:44.35       39595964 B   ---   --   ---xx   flac  0.6246  gd80-08-27d3t04.flac
     6:10.38       65357420 B   ---   --   ---xx   flac  0.6237  gd80-08-27d3t05.flac
     8:50.65       93644924 B   ---   --   ---xx   flac  0.5938  gd80-08-27d3t06.flac
     5:04.18       53667980 B   ---   --   ---xx   flac  0.6195  gd80-08-27d3t07.flac
   171:16.57     1812821520 B                            0.5828  (24 files)


Show Checksums
ffp
gd80-08-27d1t01.flac:ffc466085cc1bca21d3e3dcbe47c5fdd
gd80-08-27d1t02.flac:bbc9cb499022cdb2a7c0423d88718e4b
gd80-08-27d1t03.flac:fd38c89db15abaacb572d88f2bf233b5
gd80-08-27d1t04.flac:f24fffa971887bfc69fa05053fb5a96b
gd80-08-27d1t05.flac:f9c6ef9e095f30ff9370ed391cb50437
gd80-08-27d1t06.flac:1bc530156ecf9aacd826f0107388e9fb
gd80-08-27d1t07.flac:ee471a5f43a4da4de04e049a399d7a34
gd80-08-27d1t08.flac:3d64c921becab554424ebd22542d131e
gd80-08-27d1t09.flac:8b57d0873d7dd3fc98f1a7ddeda92755
gd80-08-27d1t10.flac:933ec57ab5139ee0e5fd9ce21753a554
gd80-08-27d2t01.flac:42ef75ffe46059f34c1b155e39a3d7bb
gd80-08-27d2t02.flac:3dba05b01fb950db4a5e2104e503fd4a
gd80-08-27d2t03.flac:cff1b64aa495bb95e02d42e72e85543f
gd80-08-27d2t04.flac:dda365ae2fd1a2132f11bad54aa7cf23
gd80-08-27d2t05.flac:04d0f1a63e28efa6443d1f4a3e124795
gd80-08-27d2t06.flac:99f7f20a657df96c632d487795e418a4
gd80-08-27d2t07.flac:be72ba77033336042be6e2c321556139
gd80-08-27d3t01.flac:5762e738076372c054ab90102d85b943
gd80-08-27d3t02.flac:028f8b4b015d7fca19c856a39fd74c39
gd80-08-27d3t03.flac:86dd27d42c3982401bb6c21eef6305d3
gd80-08-27d3t04.flac:9704ffa1d5ee91483969ff006375e813
gd80-08-27d3t05.flac:5d3466a19969e50922f03dcbda543696
gd80-08-27d3t06.flac:7e0f6145ef47f5760ba9c49d4c424e7d
gd80-08-27d3t07.flac:75d495505e1f30176279dcf7ddaa3709
flac-md5
8201c9ef3af5ecf4f8ac654a1be4c6a7 *gd80-08-27d1t01.flac
f6b60807d57c8126a7c6ce6a6a13ba64 *gd80-08-27d1t02.flac
99ddd5b8c7fc131b846e652162c63162 *gd80-08-27d1t03.flac
9b233a7fec16c322e72169fa34ee70b9 *gd80-08-27d1t04.flac
505953a470767cf2b48b7f88dae74871 *gd80-08-27d1t05.flac
a6de144972223d90ac62f784424b3907 *gd80-08-27d1t06.flac
14b3b6ce4a8b713fa7ab52cebd5c64d1 *gd80-08-27d1t07.flac
1d9d045bc20cae0f5038dbf95dd8b1d2 *gd80-08-27d1t08.flac
de7e53685d06b8e4462db7ae8ab38d5a *gd80-08-27d1t09.flac
909bf0ee802334b6fd3d930e665a3f0e *gd80-08-27d1t10.flac
1b293d1f66f620bf6d923cfb810af330 *gd80-08-27d2t01.flac
32821112bce9f43a75f86ad397399926 *gd80-08-27d2t02.flac
29309366b426ac11120221ab58381475 *gd80-08-27d2t03.flac
3e61eadd1a6b36817cbe1f9e4f4e64ee *gd80-08-27d2t04.flac
8d574f10f6caab8babe10e1dd3f2e535 *gd80-08-27d2t05.flac
84046d076db0e63913881439da637742 *gd80-08-27d2t06.flac
a9636a92ba1792d2112f9aea216c12b5 *gd80-08-27d2t07.flac
c2824601e784343de88b0aeddbbd4774 *gd80-08-27d3t01.flac
3569081b982d290b1f321815cbbc0ee3 *gd80-08-27d3t02.flac
15f2e8c11a42cff6be710764107f6fdc *gd80-08-27d3t03.flac
46de5cc4b9fbcd601c220f86fca61e7f *gd80-08-27d3t04.flac
9d7b6e24cae146ab2e7261cd0c77445a *gd80-08-27d3t05.flac
9a6db82bf4bbd64396202972b97ecae5 *gd80-08-27d3t06.flac
df7a1e24c86bcdd56fd9cf7265598fd0 *gd80-08-27d3t07.flac

Comments
Add Comment
Other Sources (comments)
AUD>MC>??>DAT>CDR; Multiple... (0) flac16; Recording... (0)
Date User Comment