Browse Collections Artists Sources   Search Dates

Add Show    List Management    Help


Grateful Dead 07/26/87
Anaheim Stadium, Anaheim, CA
Comments Add Comment    Source Collectors    Add to Collection    Add to Want List    History
Source # 124098 Other Sources
Entered by Matt Vernon
Checksums flac-md5 , ffp
Disc Counts 0 / 0
Media Size Compressed: 718.46 MB (753360896 bytes)
Uncompressed: 2.18 GB (2337901212 bytes)
Date Circulated
Date Added
03/08/2013
03/08/2013
Source Summary flac16; Source: 1x Sennheiser MD-421 (mono) > unknown deck > MAC, recorded "off second stack behind Healy". 1st Gen cassettes kindly provided by Seaweed1010. Transfer: XLII-S > Nakamichi CR-5A > Edirol FA-66 > Wavelab 2448 > R8Brain > CD-Wave > TLH > FLAC 1644 tagged, Andrew F. March 2013 
  Archive
Source Information - Download Text | Download Zip
GRATEFUL DEAD
and Bob Dylan
Anaheim Stadium
Anaheim CA
07-26-1987

s1t01 Iko Iko
s1t02 Minglewood Blues
s1t03 Tons of Steel
s1t04 West LA Fadeaway
s1t05 When I Paint My Masterpiece
s1t06 Mexicali Blues
s1t07 Birdsong >
s1t08 Promised Land

s2t01 Shakedown Street
s2t02 Looks Like Rain
s2t03 Terrapin >
s2t04 Drums >
s2t05 Space >
s2t06 The Other One >
s2t07 Stella Blue >
s2t08 Throwing Stones >
s2t09 Not Fade Away

s3t01 Mr. Tambourine Man
s3t02 Dead Man, Dead Man
s3t03 Maggie's Farm
s3t04 Simple Twist of Fate
s3t05 Watching the River Flow
s3t06 It's All Over Now Baby Blue
s3t07 Chimes of Freedom
s3t08 tuning
s3t09 Queen Jane Approximately
s3t10 Stuck Inside of Mobile with the Memphis Blues Again
s3t11 Ballad of a Thin Man
s3t12 Rainy Day Women #12 & 35
s3t13 Gotta Serve Somebody
s3t14 All Along the Watchtower
s3t15 Encore: Touch of Grey >
s3t16 Encore: Knockin' on Heaven's Door

Source: 1x Sennheiser MD-421 (mono) > unknown deck > MAC, recorded
"off second stack behind Healy". 1st Gen cassettes kindly provided
by Seaweed1010.

Transfer: XLII-S > Nakamichi CR-5A > Edirol FA-66 > Wavelab 2448 >
R8Brain > CD-Wave > TLH > FLAC 1644 tagged, Andrew F. March 2013

It appears the tapers were able to get only a single mic into the
concert (it was a no-taping show), they're heard discussing that
between songs. However, they did manage to capture a decent mix
from the repeater array; with good bass, clear vocals, and without
a lot of stadium echo or crowd noise. The tapers can also be heard
mic-checking before Tons of Steel, Shakedown, and Looks Like Rain.
Note: small FLAC file size is due to mono WAV data.

Patches from ID-98214 were mixed down to mono and added as follows:
- Iko 0:00 > 0:18
- Masterpiece 3:04 > 3:22
- Promised Land 0:00 > 0:06
- crowd after Promised Land 4:13 > 4:21
- Space 4:31 > 4:37
- Chimes of Freedom 5:28 > 5:33
- Touch of Grey 0:00 > 0:18

CDR Burning: Each set on a disc with Encores on end of Disc One.

    length     expanded size    cdr  WAVE problems  fmt   ratio  filename
     6:13.62       65943068 B   ---   --   ---xx   flac  0.3351  gd1987-07-26s1t01.flac
     8:28.05       89623004 B   ---   --   ---xx   flac  0.3351  gd1987-07-26s1t02.flac
     5:32.42       58663628 B   ---   --   ---xx   flac  0.3440  gd1987-07-26s1t03.flac
     8:19.25       88082444 B   ---   --   ---xx   flac  0.3159  gd1987-07-26s1t04.flac
     3:42.39       39252572 B   ---   --   ---xx   flac  0.3287  gd1987-07-26s1t05.flac
     4:52.19       51553532 B   ---   --   ---xx   flac  0.3250  gd1987-07-26s1t06.flac
     8:37.30       91269404 B   ---   --   ---xx   flac  0.3231  gd1987-07-26s1t07.flac
     4:20.52       45986348 B   ---   --   ---xx   flac  0.3380  gd1987-07-26s1t08.flac
    12:32.48      132765740 B   ---   --   ---xx   flac  0.3310  gd1987-07-26s2t01.flac
     8:27.43       89535980 B   ---   --   ---xx   flac  0.3126  gd1987-07-26s2t02.flac
    11:48.35      124973564 B   ---   --   ---xx   flac  0.3263  gd1987-07-26s2t03.flac
     8:46.43       92887580 B   ---   --   ---xx   flac  0.2955  gd1987-07-26s2t04.flac
     6:22.23       67438940 B   ---   --   ---xx   flac  0.2869  gd1987-07-26s2t05.flac
     6:48.58       72107660 B   ---   --   ---xx   flac  0.3168  gd1987-07-26s2t06.flac
     7:19.50       77557244 B   ---   --   ---xx   flac  0.3078  gd1987-07-26s2t07.flac
     8:48.31       93212156 B   ---   --   ---xx   flac  0.3394  gd1987-07-26s2t08.flac
     8:39.14       91584572 B   ---   --   ---xx   flac  0.3281  gd1987-07-26s2t09.flac
     5:15.15       55601324 B   ---   --   ---xx   flac  0.3186  gd1987-07-26s3t01.flac
     6:22.30       67455404 B   ---   --   ---xx   flac  0.3159  gd1987-07-26s3t02.flac
     5:16.67       55900028 B   ---   --   ---xx   flac  0.3212  gd1987-07-26s3t03.flac
     6:16.34       66406412 B   ---   --   ---xx   flac  0.3226  gd1987-07-26s3t04.flac
     4:30.55       47757404 B   ---   --   ---xx   flac  0.3324  gd1987-07-26s3t05.flac
     6:27.47       68377388 B   ---   --   ---xx   flac  0.3095  gd1987-07-26s3t06.flac
     5:33.29       58809452 B   ---   --   ---xx   flac  0.3230  gd1987-07-26s3t07.flac
     1:30.68       16035980 B   ---   --   ---xx   flac  0.2877  gd1987-07-26s3t08.flac
     4:21.61       46183916 B   ---   --   ---xx   flac  0.3171  gd1987-07-26s3t09.flac
     7:34.39       80177372 B   ---   --   ---xx   flac  0.3277  gd1987-07-26s3t10.flac
     6:52.23       72730940 B   ---   --   ---xx   flac  0.3253  gd1987-07-26s3t11.flac
     5:06.40       54072524 B   ---   --   ---xx   flac  0.3285  gd1987-07-26s3t12.flac
     6:17.34       66582812 B   ---   --   ---xx   flac  0.3167  gd1987-07-26s3t13.flac
     6:36.42       69953228 B   ---   --   ---xx   flac  0.3245  gd1987-07-26s3t14.flac
     6:26.70       68255084 B   ---   --   ---xx   flac  0.3318  gd1987-07-26s3t15.flac
     6:43.32       71164508 B   ---   --   ---xx   flac  0.3190  gd1987-07-26s3t16.flac
   220:53.30     2337901212 B                            0.3222  (33 files)

No errors occured.



Show Checksums
flac-md5
83449bf6155e930f99a0f413204fb2bb *gd1987-07-26s1t01.flac
ec688bbafe0d9534d83fda4337ec174b *gd1987-07-26s1t02.flac
f29fdc4659235dfbd9b269a8d0358679 *gd1987-07-26s1t03.flac
3356c9100620d1faa76e894eb9c11c7b *gd1987-07-26s1t04.flac
106e6d4c8e52b76625e8b956019321de *gd1987-07-26s1t05.flac
d297670668fd91b9e9c128d02648578d *gd1987-07-26s1t06.flac
027e468039343ec04cd844d1cc9eed20 *gd1987-07-26s1t07.flac
65cf03bbe45f641739d8fbb760a31a65 *gd1987-07-26s1t08.flac
67dc7f1e106024909c2b0869e4ee1c14 *gd1987-07-26s2t01.flac
f5a68eb414f66aeffd7c40b2d4dfc764 *gd1987-07-26s2t02.flac
8195193cd9d151369439720e31929cac *gd1987-07-26s2t03.flac
88b64c360df992d960cf8f926b7503a7 *gd1987-07-26s2t04.flac
602d3f276f12549f7fadfc709cd6b089 *gd1987-07-26s2t05.flac
e0487ec891fd907f3dbdf7be8dc5ba92 *gd1987-07-26s2t06.flac
2ff18f68144c1826a9fd6ef3bcdb9d68 *gd1987-07-26s2t07.flac
df9f20c33affd5116e04ee3344b5bfa9 *gd1987-07-26s2t08.flac
291b20b359e05ddba0b780d3dfc1254d *gd1987-07-26s2t09.flac
760b8b4a017ee81ef9527dc277b5b325 *gd1987-07-26s3t01.flac
cb27dceb04ea7f051979d6b2182eff16 *gd1987-07-26s3t02.flac
4616e2c0750609e10076e00aff236518 *gd1987-07-26s3t03.flac
e13d24d7a6e64524dd01bdffdc2d58c9 *gd1987-07-26s3t04.flac
0f0104acd5a809a7513d7ad62d172163 *gd1987-07-26s3t05.flac
2d0b3e045a15be5bc4e97e81040f545b *gd1987-07-26s3t06.flac
2ff6e207e4394601691679815bb07318 *gd1987-07-26s3t07.flac
b82b6d7d0383833441d921d70f1d2c8f *gd1987-07-26s3t08.flac
cce4b0c2174890219d3bb1b6eaa2b583 *gd1987-07-26s3t09.flac
018c20fb6c6033f939c9c844a390ad91 *gd1987-07-26s3t10.flac
3d53ec55eda0abbab9e6abf84dfc7064 *gd1987-07-26s3t11.flac
a40e229583e6eeed503ce3c18c03065f *gd1987-07-26s3t12.flac
b76d90113d78642e4927df610fa75052 *gd1987-07-26s3t13.flac
64242305e9d39c0fbd9ceaa1ab8093e8 *gd1987-07-26s3t14.flac
535a1779874c8c6290afd8b68c499860 *gd1987-07-26s3t15.flac
fe33db7d860c549b9e4006e09f02327a *gd1987-07-26s3t16.flac
ffp
gd1987-07-26s1t01.flac:76a3261d20ef67d24871425fb4f5167c
gd1987-07-26s1t02.flac:00cb49a8d116c777a286c8e9ee334c0e
gd1987-07-26s1t03.flac:755235e2efc92b2c55e03f32a445eb0c
gd1987-07-26s1t04.flac:826c3a751cba7dd43bee8e20479d4417
gd1987-07-26s1t05.flac:23352b91832cb88d2f38b27166a85fb4
gd1987-07-26s1t06.flac:f9cb08cad822bdfcef9ad385e3ce99fa
gd1987-07-26s1t07.flac:864d5c44b316aa2bfda96595b7e8ffc9
gd1987-07-26s1t08.flac:dcc633710d6f526ad54cec4aa0113e07
gd1987-07-26s2t01.flac:13a00f813d1ceccd41bc78ecf9c1dadb
gd1987-07-26s2t02.flac:c9e4ff1f9af136319fcca9ca988aab9f
gd1987-07-26s2t03.flac:45d67b7612f0b65fdeecf81f5a56bc96
gd1987-07-26s2t04.flac:6a8ab8eb5623d9f76b589cb573c5c8d6
gd1987-07-26s2t05.flac:86ff24d10d3b6eb910e6ace379285b53
gd1987-07-26s2t06.flac:b31d5d863bec0f4a3fe3d7b0fca29309
gd1987-07-26s2t07.flac:96e105519f9ac87410b290cf939b7414
gd1987-07-26s2t08.flac:b95d1084990e29434698eed7a828155e
gd1987-07-26s2t09.flac:0195bd116f62823650dd4cace9a60e98
gd1987-07-26s3t01.flac:5b522ed1597906d8c622a43ffccd9da7
gd1987-07-26s3t02.flac:29e214127a81a6520de9b06ca39f3c6d
gd1987-07-26s3t03.flac:7a8e18b6e5f60a1d1e86dd93b221fa33
gd1987-07-26s3t04.flac:3bff50d8f4d4e94e0d9ed3a58d010138
gd1987-07-26s3t05.flac:fb66851c580726929ca0f30f5f8321fe
gd1987-07-26s3t06.flac:c5838abb90a7a1136328d1d60eca13a4
gd1987-07-26s3t07.flac:b49c4bf06561d61fea0bbbb5572aa433
gd1987-07-26s3t08.flac:30e7d0286c3115c49275193c8ce68577
gd1987-07-26s3t09.flac:c6b4a84aa52dd45062e10fe4c3c9deff
gd1987-07-26s3t10.flac:ff97eed21f2972b23a5fefd8f909c0f3
gd1987-07-26s3t11.flac:5d4bcb5d6f307d8c088e93734b50a5dd
gd1987-07-26s3t12.flac:776805d600d913872963e4be652c4e9d
gd1987-07-26s3t13.flac:7a869707995c27b57c8aa6cc06768aad
gd1987-07-26s3t14.flac:443a2af91ed28b820e5fb97a6d87409f
gd1987-07-26s3t15.flac:c95299871c9bde06cdc9e1bb6d25774b
gd1987-07-26s3t16.flac:8ff4772d2a87ac7d2b68979d9b3eb009

Comments
Add Comment
Other Sources (comments)
Soundboard > ? > SHN... (2) flac16; Modified Nak... (2) flac16; Set 3... (0) flac16; Source:... (0) flac24; Recording... (0) flac16; Recording... (0)
Date User Comment