Browse Collections Artists Sources   Search Dates

Add Show    List Management    Help


Phish 06/11/94
Red Rocks Amphitheatre, Morrison, CO
Comments Add Comment    Source Collectors    Add to Collection    Add to Want List    History
Source # 124103 Other Sources
Entered by Terry Watts
Checksums FFP , FLAC MD5
Disc Counts 0 / 0
Media Size Compressed: 989.79 MB (1037865097 bytes)
Date Circulated
Date Added
03/08/2013
03/09/2013
Source Summary flac16, 44kHz; FM > DAT(c); DAT(c) > Sony PCM-R500 > Tascam SS-R05 > Samplitude > FLAC; Source by unknown; Transfer by Charlie Miller 
Source Information - Download Text | Download Zip
Phish - June 11, 1994
Red Rocks Amphitheatre - Morrison, CO

Recording Info:
FM -> Dat (48k)

Transfer Info:
Dat (Sony R500) -> Tascam SS-R05 -> Samplitude Professional v11.2.1 -> FLAC
(2 Discs Audio / 1 DVD FLAC)

All Transfers and Mastering By Charlie Miller
[email protected]
March 8, 2013

Notes:
-- Encore moved to end of Set 1 to fit show onto 2 discs
-- Set 2 and Encore are seamless
-- This is a better (and cleaner) transfer than the other soures

Set 1:
d1t01 - Wilson
d1t02 - Chalk Dust Torture
d1t03 - You Enjoy Myself
d1t04 - Rift
d1t05 - Down With Disease
d1t06 - It's Ice
d1t07 - Tela
d1t08 - Stash

Set 2:
d2t01 - Also Sprach Zarathustra ->
d2t02 - Run Like An Antelope
d2t03 - Fluffhead
d2t04 - Scent Of A Mule
d2t05 - Split Open And Melt
d2t06 - The Squirming Coil
d2t07 - Maze
d2t08 - Contact ->
d2t09 - Frankenstein

Encore:
d1t09 - Suzy Greenberg


SHNTOOL OUTPUT:
    length     expanded size    cdr  WAVE problems  fmt   ratio  filename
     4:29.56       47583356 B   ---   --   ---xx   flac  0.6721  ph1994-06-11d1t01.flac
     6:02.22       63908588 B   ---   --   ---xx   flac  0.7063  ph1994-06-11d1t02.flac
    19:58.40      211421324 B   ---   --   ---xx   flac  0.6522  ph1994-06-11d1t03.flac
     5:38.45       59729084 B   ---   --   ---xx   flac  0.6847  ph1994-06-11d1t04.flac
     7:02.04       74450252 B   ---   --   ---xx   flac  0.6977  ph1994-06-11d1t05.flac
     8:22.01       88555196 B   ---   --   ---xx   flac  0.6667  ph1994-06-11d1t06.flac
     6:33.66       69480476 B   ---   --   ---xx   flac  0.6240  ph1994-06-11d1t07.flac
     9:33.17      101117228 B   ---   --   ---xx   flac  0.6485  ph1994-06-11d1t08.flac
     5:56.49       62913692 B   ---   --   ---xx   flac  0.7041  ph1994-06-11d1t09.flac
     4:05.65       43370924 B   ---   --   ---xx   flac  0.6733  ph1994-06-11d2t01.flac
    10:36.30      112261004 B   ---   --   ---xx   flac  0.6775  ph1994-06-11d2t02.flac
    13:34.18      143631980 B   ---   --   ---xx   flac  0.6482  ph1994-06-11d2t03.flac
     7:39.59       81106412 B   ---   --   ---xx   flac  0.6375  ph1994-06-11d2t04.flac
     8:54.23       94251740 B   ---   --   ---xx   flac  0.6759  ph1994-06-11d2t05.flac
     9:51.01      104254796 B   ---   --   ---xx   flac  0.6130  ph1994-06-11d2t06.flac
     9:40.33      102389660 B   ---   --   ---xx   flac  0.6584  ph1994-06-11d2t07.flac
     6:05.07       64402508 B   ---   --   ---xx   flac  0.6102  ph1994-06-11d2t08.flac
     4:46.31       50523356 B   ---   --   ---xx   flac  0.6604  ph1994-06-11d2t09.flac
   148:50.42     1575351576 B                            0.6588  (18 files)


Show Checksums
FFP
ph1994-06-11d1t01.flac:3264c55df166e6d376e1b66ce2c93b39
ph1994-06-11d1t02.flac:f9ae233d13f4aaab214b52a438fb0e02
ph1994-06-11d1t03.flac:db939ab233973bf17fc6dc8620b647c2
ph1994-06-11d1t04.flac:dbe337318bed74984353f9143bc567f9
ph1994-06-11d1t05.flac:6430971594a6ed1a457853625ef036ce
ph1994-06-11d1t06.flac:b04ea1e9428516edd24594a585677a4d
ph1994-06-11d1t07.flac:b4856c6e5e5debeddde59c12faf0b562
ph1994-06-11d1t08.flac:93a2ce3fd390eb87d3279cc362981f41
ph1994-06-11d1t09.flac:90b0f5b1f252a9f53bda571199d4b0d9
ph1994-06-11d2t01.flac:1e5ad41d91b147432b0b678b0d67cbe2
ph1994-06-11d2t02.flac:6d8bdf7ec912f1aba4b064082b45262f
ph1994-06-11d2t03.flac:ce369db9e61a8497d25d9d0ecc36a30a
ph1994-06-11d2t04.flac:93a520f31f5d8ad9b9a1ac74121efd77
ph1994-06-11d2t05.flac:245856fa06d6a78c52f6004680efc5c4
ph1994-06-11d2t06.flac:6ffab461e243e76dc648105618ecff4f
ph1994-06-11d2t07.flac:dfb641b92ec23c705d83e985a61973d1
ph1994-06-11d2t08.flac:4b77243fa491954d105e7dc89beba17d
ph1994-06-11d2t09.flac:9c17500ded15e5af761235515166987c
FLAC MD5
7ede396d06f65a19fbab1d4a59ce8e7c *ph1994-06-11d1t01.flac
2dae3a721df7712f23671750eca6a9e7 *ph1994-06-11d1t02.flac
5f7c9aaa7a92c6f97e4af8e5bd569d76 *ph1994-06-11d1t03.flac
f2d1da7bd197fd77ff63639f463387d2 *ph1994-06-11d1t04.flac
349da1bf8d71d5d2a53ad1ba1f045242 *ph1994-06-11d1t05.flac
e79ede3151a6a55064d61e0fd2c0b611 *ph1994-06-11d1t06.flac
ba32cadb5543bb5154233ffbeef82bb8 *ph1994-06-11d1t07.flac
d32164ae60fd20440c41cb0e4caa9c2b *ph1994-06-11d1t08.flac
0a2c747d3d35048e3a4ba75a4c156aed *ph1994-06-11d1t09.flac
51da37ef7efaf2cf0962a9d54d1f3171 *ph1994-06-11d2t01.flac
15c06400ee648d5f4fa9ef3ed5c4daf1 *ph1994-06-11d2t02.flac
0f71eea22e03f38501cd787562e4e27e *ph1994-06-11d2t03.flac
173c796961d209f18bdd67e086c6a7d2 *ph1994-06-11d2t04.flac
f68f29ec4f27fefd3222c8da7ba2a8e8 *ph1994-06-11d2t05.flac
a247fbeb9a68c14f416e63dfd3d44562 *ph1994-06-11d2t06.flac
7ea10c3b64ff2f61f047f9e0d5d68d4e *ph1994-06-11d2t07.flac
26dbf470963c22b9de1e765edce4c93a *ph1994-06-11d2t08.flac
2a0aff547f90fea762232ac6c05b91ac *ph1994-06-11d2t09.flac

Comments
Add Comment
Other Sources (comments)
shn16, 44kHz; FM >... (5) shn16, 44kHz; FM >... (1) flac16 44kHz;... (1) flac16, 48kHz;... (0) flac16, 48kHz;... (0)
Date User Comment