Browse Collections Artists Sources   Search Dates

Add Show    List Management    Help


Grateful Dead 11/30/73
Music Hall, Boston, MA
Comments Add Comment    Source Collectors    Add to Collection    Add to Want List    History
Source # 124131 Other Sources
Entered by Matt Vernon
Checksums flac-md5 , ffp
Disc Counts 0 / 0
Media Size Compressed: 0.99 GB (1066134943 bytes)
Uncompressed: 1.76 GB (1890890744 bytes)
Date Circulated
Date Added
03/11/2013
03/11/2013
Source Summary flac16; 2 source matrix by dusborne; Soundboard (shnid:8099) sbd > ? > CDR > EAC(secure) > mkwact(seekable) and Audience (shnid:17277) Source: AUDMC(unknown mics) > ? > C > DAT; DAT > WAV(48Khz) Marc Pujol Encoding: WAV(48kHz) > Cool Edit > CDWav > mkwact > SHN 
  Archive
Source Information - Download Text | Download Zip
Grateful Dead
November 30, 1973
Boston Music Hall
Boston, MA

2 source matrix

Soundboard (shnid:8099)
------------------------------------------------------------------------------------
gd73-11-30.sbd.vernon.8099.sbeok.shnf


sbd > ? > CDR > EAC(secure) > mkwact(seekable)
shn convernon [email protected]
original cdrs from Seth Kaplan

Comment: Some songs from this date are featured on Dick's Picks 14.

Audience (shnid:17277)
------------------------------------------------------------------------------------
gd73-11-30.aud.vernon.17277.sbeok.shnf

Source: AUDMC(unknown mics) > ? > C > DAT

DAT > WAV(48Khz) Marc Pujol
Encoding: WAV(48kHz) > Cool Edit > CDWav > mkwact > SHN [email protected]

Thanks to David Minor for the source DATs.

Deadlists Comments
Recordings 200 AUD + 200 SBD: the soundboard is complete. Portions were released as part of
Dick's Picks Volume 14 the AUD is complete except the beginning of Don't Ease Me In,
In fairly listenable AUD. An older master contained only the 1st [20:07] of Playin. But the newer
master has the rest of the Playin In barely listenable patch To provide the complete timing. (2/98)

notes
- this aud must be different than the one referenced in deadlists because PITB is intact and
complete with no change in source
- of interest to the aud collector.  I'd rate it a B- overall, mostly because of the mild distortion systemic
to most tunes.  Without this it would have been a B+ or better

flaws
- numerous small duration dropouts isolated in left or right channel.  Many are fixable by
monoizing these sections using the good channel, though they were NOT fixed for this shn set.
- midway into d1t3, the mic gain or equivalent was raised from here on there is mild distortion on the
louder notes that looks like harmonic distortion in a spectral view.  This is the main sonic flaw
on this source.
- d1t6: brief garbled moment in the middle
- d2t1 bertha, left channel volume partially reduced in a few places and Mild distortion, especially on Jerry's notes :(
- d2t2 Promised land has mild overload distortion
- d2t3 row jimmy first notes clipped, some tape wackiness in a few places at end of Row Jimmy
(high whine, some speed variations)
- d2t5 HCS right channel drops sub second near start. last notes clipped
- d3t3 LIG has some of the periods where the hiss or harmonic distortion kicks in then goes away
- d3t4 brief tape speed weirdness few places
- d3t6 brief bit of digi-like noise in Sugar Magnolia. Also, after the first few chords something
changed to make the sound a bit more distant.
-------------------------------------------------------------------------------------

---Thank you Matt Vernon for your work on the SBD and AUD sources.
---Thank you Seth Kaplan for supplying the cdr's for the SBD.
---Thank you David Minor for the AUD DATs.
---Thank you Germain for your advice, encouragement, guidance and seeding.

Matrix by dusborne

02-18-2013
------------------------------------------------------------------------------------

Set 1

101 - gd73-11-30s1t01 - Morning Dew
102 - gd73-11-30s1t02 - Mexicali Blues *
103 - gd73-11-30s1t03 - Dire Wolf
104 - gd73-11-30s1t04 - Beat It On Down The Line
105 - gd73-11-30s1t05 - Brown Eyed Women
106 - gd73-11-30s1t06 - Black Throated Wind
107 - gd73-11-30s1t07 - Don't Ease Me In *
108 - gd73-11-30s1t08 - El Paso
109 - gd73-11-30s1t09 - They Love Each Other
110 - gd73-11-30s1t10 - Big River
111 - gd73-11-30s1t11 - Loser
112 - gd73-11-30s1t12 - Playin' In The Band
*SBD Only

Set 2

201 - gd73-11-30s2t01 - Bertha ->
202 - gd73-11-30s2t02 - Promised Land
203 - gd73-11-30s2t03 - Row Jimmy
204 - gd73-11-30s2t04 - Jack Straw
205 - gd73-11-30s2t05 - Here Comes Sunshine
206 - gd73-11-30s2t06 - Weather Report Suite ->
207 - gd73-11-30s2t07 - Let It Grow ->
208 - gd73-11-30s2t08 - Dark Star Jam ->
209 - gd73-11-30s2t09 - Eyes Of The World ->
210 - gd73-11-30s2t10 - Sugar Magnolia

-----------------------------------------------------------------------------------------

Tagging notes:
Show information is embedded within the header of each flac file.
It will display on any player capable of directly playing flac
files. If converted to wav during processing, all tags will be
stripped, however audio data will remain unaffected. If you must
transcode to a lossy format, do so directly Flac > Lossy.
Use ffp to validate audio integrity.
Md5 values will change if tagging is altered.

dusborne 02-18-2013
-----------------------------------------------------------------------------------
    length     expanded size    cdr  WAVE problems  fmt   ratio  filename
    14:28.51      153235196 B   ---   --   ---xx   flac  0.5381  gd73-11-30s1t01.flac
     3:32.18       37439180 B   ---   --   ---xx   flac  0.5885  gd73-11-30s1t02.flac
     4:50.19       51200732 B   ---   --   ---xx   flac  0.5770  gd73-11-30s1t03.flac
     3:34.43       37850780 B   ---   --   ---xx   flac  0.5852  gd73-11-30s1t04.flac
     5:01.43       53197580 B   ---   --   ---xx   flac  0.5706  gd73-11-30s1t05.flac
     6:57.47       73669388 B   ---   --   ---xx   flac  0.5720  gd73-11-30s1t06.flac
     3:58.25       42042044 B   ---   --   ---xx   flac  0.5751  gd73-11-30s1t07.flac
     4:10.43       44201180 B   ---   --   ---xx   flac  0.5899  gd73-11-30s1t08.flac
     5:58.64       63301772 B   ---   --   ---xx   flac  0.5380  gd73-11-30s1t09.flac
     5:23.64       57127772 B   ---   --   ---xx   flac  0.5532  gd73-11-30s1t10.flac
     6:47.49       71910092 B   ---   --   ---xx   flac  0.5691  gd73-11-30s1t11.flac
    23:44.08      251212460 B   ---   --   ---xx   flac  0.5523  gd73-11-30s1t12.flac
     6:25.07       67930508 B   ---   --   ---xx   flac  0.5817  gd73-11-30s2t01.flac
     3:10.62       33661868 B   ---   --   ---xx   flac  0.5886  gd73-11-30s2t02.flac
     9:28.66      100350476 B   ---   --   ---xx   flac  0.5412  gd73-11-30s2t03.flac
     5:13.74       55387292 B   ---   --   ---xx   flac  0.5516  gd73-11-30s2t04.flac
    11:59.24      126888092 B   ---   --   ---xx   flac  0.5559  gd73-11-30s2t05.flac
     5:27.04       57692252 B   ---   --   ---xx   flac  0.5291  gd73-11-30s2t06.flac
     9:16.35       98160764 B   ---   --   ---xx   flac  0.5633  gd73-11-30s2t07.flac
     9:36.59      101745212 B   ---   --   ---xx   flac  0.5245  gd73-11-30s2t08.flac
    19:26.56      205814156 B   ---   --   ---xx   flac  0.6061  gd73-11-30s2t09.flac
    10:06.27      106961948 B   ---   --   ---xx   flac  0.5908  gd73-11-30s2t10.flac
   178:39.63     1890980744 B                            0.5638  (22 files)


Show Checksums
flac-md5
c8a13269ebbb32c0c1780cbf3aaa0f4b *gd73-11-30s1t01.flac
704b4b8caa0dd53dff8257c59b0e4236 *gd73-11-30s1t02.flac
76617960adfc9843b0c502150be52aea *gd73-11-30s1t03.flac
81d1331f2fe8d4e13c2607c817f75189 *gd73-11-30s1t04.flac
aa0539e2e95e48d015ddde95c5fc5ee1 *gd73-11-30s1t05.flac
52754c50dc5d48739f1039c223b307b7 *gd73-11-30s1t06.flac
76624ffaeb5f1132cab4f6980c9b94c9 *gd73-11-30s1t07.flac
277e3140cc3ea82b29ad6c1dd14fb970 *gd73-11-30s1t08.flac
2b89d817641838b6c088a555e2e3c5a3 *gd73-11-30s1t09.flac
3499a1586b34fa0efd82a3171278b595 *gd73-11-30s1t10.flac
10a43f8b3274d04001abed41f917d777 *gd73-11-30s1t11.flac
7f592ac648e4bf8f2f99a92a11f414e6 *gd73-11-30s1t12.flac
11273e3fefc9f05f1d023c65c116ed30 *gd73-11-30s2t01.flac
59c090ece01b1272ad7c51ef2b28d329 *gd73-11-30s2t02.flac
821f3878f0baccc02dfbbebcf89668f3 *gd73-11-30s2t03.flac
77148326f92100514d34bc046414fc42 *gd73-11-30s2t04.flac
484a4086d4e5645c716ce78d193fd084 *gd73-11-30s2t05.flac
c7b8c32c16c1b2bf430a6a3dca8a3534 *gd73-11-30s2t06.flac
2b212bf11c1a400f504cf562d051b458 *gd73-11-30s2t07.flac
1a408e881d829afa0bbaf4628ccc8984 *gd73-11-30s2t08.flac
cd401132c2602d58803bba24314f01e3 *gd73-11-30s2t09.flac
78bba729541237c1b5456d5f37e1b8e4 *gd73-11-30s2t10.flac
ffp
gd73-11-30s1t01.flac:722c5567bf3ecc5393bb7d990b324848
gd73-11-30s1t02.flac:6497de51dc64928425575f091a35f5dd
gd73-11-30s1t03.flac:a541cae4cf21de263514b3671e8e3a69
gd73-11-30s1t04.flac:48b1421ad9dae835bb5b79e98a8db26f
gd73-11-30s1t05.flac:d488c6f4190f102f917f8499e793c8d4
gd73-11-30s1t06.flac:11a7745d79b6013007d2a9dc0c795401
gd73-11-30s1t07.flac:e3bf2c59b8d2a051705c08edb7d62a64
gd73-11-30s1t08.flac:d5fa83a65f824fb2ed739f3f708b0d10
gd73-11-30s1t09.flac:b0e161c5f238a12d39f34ad3ee3ca127
gd73-11-30s1t10.flac:fcaeb61d71fdfc91effa77962d8d24af
gd73-11-30s1t11.flac:5579c60a2c37eaccbbc8edde2acabec7
gd73-11-30s1t12.flac:11c57a1c8c03a3d3e2ab035eb1e51387
gd73-11-30s2t01.flac:02f7873a5445dd58ffa75be43084f017
gd73-11-30s2t02.flac:4e22f3fbdfa35336b48cbd8f60299f6a
gd73-11-30s2t03.flac:b908613757a9d306823a52719a487032
gd73-11-30s2t04.flac:23aab4072b736d5a4ab027896dd0b88f
gd73-11-30s2t05.flac:b30b7b2aed4366deb606119b59128d2e
gd73-11-30s2t06.flac:82cd09c29c4fb0ac734eeeadf57c7aca
gd73-11-30s2t07.flac:b06bb72d11ead73085ca3d8427a18eb3
gd73-11-30s2t08.flac:53b392307786cfb81512f42b5c89876b
gd73-11-30s2t09.flac:a982309f2598675df3c5af67ccb69cf9
gd73-11-30s2t10.flac:6c24216891fd38205e72a48707e0efde

Comments
Add Comment
Other Sources (comments)
sbd > ? > CDR; Some songs... (1) unknown audience recording... (0)
Date User Comment