Browse Collections Artists Sources   Search Dates

Add Show    List Management    Help


Black Crowes 03/29/13
The Forum, London, England
Comments Add Comment    Source Collectors    Add to Collection    Add to Want List    History
Source # 124344 Other Sources
Entered by ziko
Checksums ffp , md5
Disc Counts 0 / 0
Media Size Compressed: 2.69 GB (2887384942 bytes)
Date Circulated
Date Added
04/01/2013
04/07/2013
Source Summary flac24;Source: Audience recording > Audio Reality binaural mics > Zoom H2 > wav 24/96 Recorded FOB, directly in front of the board around 40" from the stage, just right of DFC. Lineage: wav 24/96 > Adobe Audition 1.5 > iZotope Ozone 5 Advanced > CD Wave > TLH > Flac 24 
Source Information - Download Text | Download Zip
The Black Crowes
The Forum
London, England
03/29/2013

Source: Audience recording > Audio Reality binaural mics > Zoom H2 > wav 24/96

Recorded FOB, directly in front of the board around 40" from the stage, just right of DFC.

Lienage: wav 24/96 > Adobe Audition 1.5 > iZotope Ozone 5 Advanced > CD Wave > TLH > Flac 24



01   crowd/tuning
02   Jealous Again >
03   Thick 'N' Thin
04   Good Morning Captain
05   Hotel Illness
06   Medicated Goo
07   Wiser Time
08   Good Friday
09   She Talks to Angels
10   My Morning Song
11   High Head Blues
12   Soul Singing
13   Sister Luck
14   Thorn in My Pride
15   Remedy
16   Hard to Handle >
17   Hush > Hard To Handle (reprise)
18   crowd

encores

19   Seeing Things
20   Feelin' Allright
21   Willin'




Chris Robinson – vocals, harmonica
Rich Robinson - guitar, vocals
Jackie Greene – guitars, mandolin, vocals
Adam MacDougall – keyboards
Sven Pipien – bass
Steve Gorman – drums, percussion



This has to have been one of the loudest indoor gigs I've ever been to.  The floor is wooden and was vibrating so much that I felt it through my whole body.  I figured that at least my recording wouldn't be marred by anyone talking but if you're determined, you overcome this.  During 'Jealous Again" the guy next to me turned and put his mouth about 2 inches from my ear and decided to give me his opinion so far.  As my mics were taped to a pair of specs they picked it all up and as a bonus I got a generous helping of lager in my ear too.   Never assume anything!


recored, edited and mastered
SIRMick
March 2013


shntool output:

    length     expanded size    cdr  WAVE problems  fmt   ratio  filename
     0:57.320      33016364 B   cxx   --   ---xx   flac  0.6317  tbc2013-03-29t01.flac
     6:31.560     225538604 B   cxx   --   ---xx   flac  0.6601  tbc2013-03-29t02.flac
     3:05.840     107043884 B   cxx   --   ---xx   flac  0.6736  tbc2013-03-29t03.flac
     3:50.867     132979244 B   cxx   --   ---xx   flac  0.6652  tbc2013-03-29t04.flac
     4:27.067     153830444 B   cxx   --   ---xx   flac  0.6789  tbc2013-03-29t05.flac
     6:12.427     214517804 B   cxx   --   ---xx   flac  0.6689  tbc2013-03-29t06.flac
    15:31.667     536640044 B   cxx   --   ---xx   flac  0.6440  tbc2013-03-29t07.flac
     6:20.467     219148844 B   cxx   --   ---xx   flac  0.6346  tbc2013-03-29t08.flac
     6:47.227     234562604 B   cxx   --   ---xx   flac  0.6377  tbc2013-03-29t09.flac
     6:59.893     241858604 B   cxx   --   ---xx   flac  0.6945  tbc2013-03-29t10.flac
     6:40.096     230455070 B   cxx   --   ---xx   flac  0.6616  tbc2013-03-29t11.flac
     4:28.027     154383404 B   cxx   --   ---xx   flac  0.6560  tbc2013-03-29t12.flac
     7:14.360     250191404 B   cxx   --   ---xx   flac  0.6552  tbc2013-03-29t13.flac
    11:38.987     402616364 B   cxx   --   ---xx   flac  0.6540  tbc2013-03-29t14.flac
     5:53.400     203558444 B   cxx   --   ---xx   flac  0.6709  tbc2013-03-29t15.flac
     4:03.747     140398124 B   cxx   --   ---xx   flac  0.6623  tbc2013-03-29t16.flac
     4:28.213     154490924 B   cxx   --   ---xx   flac  0.6718  tbc2013-03-29t17.flac
     2:33.667      88512044 B   cxx   --   ---xx   flac  0.6162  tbc2013-03-29t18.flac
     7:53.773     272893484 B   cxx   --   ---xx   flac  0.6323  tbc2013-03-29t19.flac
     6:44.800     233164844 B   cxx   --   ---xx   flac  0.6585  tbc2013-03-29t20.flac
     5:15.933     181977644 B   cxx   --   ---xx   flac  0.6156  tbc2013-03-29t21.flac
   127:39.336    4411778190 B                            0.6545  (21 files)

flac fingerprints:

tbc2013-03-29t01.flac:d896e02221fddfcbf57c9c18f1f8e757
tbc2013-03-29t02.flac:42ab0d5adfc4661bc2db327c00624db5
tbc2013-03-29t03.flac:4229dc4aca19d5d38579c8959b5bc601
tbc2013-03-29t04.flac:1d5d9ad0022071fc3536d8ead92a2196
tbc2013-03-29t05.flac:aa30ac6e9dc271a30e7dc1e198d5f16a
tbc2013-03-29t06.flac:6794c8560e011d14833c940d801a172e
tbc2013-03-29t07.flac:982a8781fd2e764ccceabdff81bf2ddf
tbc2013-03-29t08.flac:a4ddf4221ede3d12330858600c14eb62
tbc2013-03-29t09.flac:66062679408f5bcbcbed674271b9654a
tbc2013-03-29t10.flac:6d80b38eaa9344bfd28350edc00d5e3f
tbc2013-03-29t11.flac:633cd77630c419207595a313123deea4
tbc2013-03-29t12.flac:b154403b3c211d17e157dd66ed7c152e
tbc2013-03-29t13.flac:262a1b098add47a6e4df9b1051b3fa5d
tbc2013-03-29t14.flac:6553da15201f2d755ae41a17b5b4d118
tbc2013-03-29t15.flac:51e61ad25aab33dfbb948e09e125d2cd
tbc2013-03-29t16.flac:3f833f39ec56fa28f7f72e364a36a3cd
tbc2013-03-29t17.flac:9615a70a4e1c8ba2a9a756637621fd14
tbc2013-03-29t18.flac:f2377fda20b8a1cba2525e6868994936
tbc2013-03-29t19.flac:809c1fd3e79a3055146a8fafba268023
tbc2013-03-29t20.flac:7ba0cb812161b76aa8e48ce26f8b47a0
tbc2013-03-29t21.flac:da115d1a25bfda9d5de06fba57617d30

Show Checksums
ffp
tbc2013-03-29t01.flac:d896e02221fddfcbf57c9c18f1f8e757
tbc2013-03-29t02.flac:42ab0d5adfc4661bc2db327c00624db5
tbc2013-03-29t03.flac:4229dc4aca19d5d38579c8959b5bc601
tbc2013-03-29t04.flac:1d5d9ad0022071fc3536d8ead92a2196
tbc2013-03-29t05.flac:aa30ac6e9dc271a30e7dc1e198d5f16a
tbc2013-03-29t06.flac:6794c8560e011d14833c940d801a172e
tbc2013-03-29t07.flac:982a8781fd2e764ccceabdff81bf2ddf
tbc2013-03-29t08.flac:a4ddf4221ede3d12330858600c14eb62
tbc2013-03-29t09.flac:66062679408f5bcbcbed674271b9654a
tbc2013-03-29t10.flac:6d80b38eaa9344bfd28350edc00d5e3f
tbc2013-03-29t11.flac:633cd77630c419207595a313123deea4
tbc2013-03-29t12.flac:b154403b3c211d17e157dd66ed7c152e
tbc2013-03-29t13.flac:262a1b098add47a6e4df9b1051b3fa5d
tbc2013-03-29t14.flac:6553da15201f2d755ae41a17b5b4d118
tbc2013-03-29t15.flac:51e61ad25aab33dfbb948e09e125d2cd
tbc2013-03-29t16.flac:3f833f39ec56fa28f7f72e364a36a3cd
tbc2013-03-29t17.flac:9615a70a4e1c8ba2a9a756637621fd14
tbc2013-03-29t18.flac:f2377fda20b8a1cba2525e6868994936
tbc2013-03-29t19.flac:809c1fd3e79a3055146a8fafba268023
tbc2013-03-29t20.flac:7ba0cb812161b76aa8e48ce26f8b47a0
tbc2013-03-29t21.flac:da115d1a25bfda9d5de06fba57617d30
md5
5616b1a014a7fadebccdedbaec8fe312 *tbc2013-03-29t01.flac
8f74bc51a45f1652e2aa346939d68614 *tbc2013-03-29t02.flac
4ad05e7b9eb01c10b3bfc0e3be001689 *tbc2013-03-29t03.flac
fbbbf0fdef0ec50050d74afbc09c2c24 *tbc2013-03-29t04.flac
491b7d50e2c5b802f42be03e92d6907d *tbc2013-03-29t05.flac
680c42399654b9360b093a2c7b5f7b87 *tbc2013-03-29t06.flac
c9c15bf254dbd922ea99046bf4e27947 *tbc2013-03-29t07.flac
3ad6a0c0e2efc28323d02235963106b6 *tbc2013-03-29t08.flac
e0ce71e362ee1c203c392120da3699b6 *tbc2013-03-29t09.flac
c759d8b801e82e74b8a24030b7c94408 *tbc2013-03-29t10.flac
aacf0de6c4f36ae079f05da34a07db6a *tbc2013-03-29t11.flac
c012068b1b8a98b8cd3ec97d6baee307 *tbc2013-03-29t12.flac
0bef8dbc8ec7d8f03c913ef10ef1c012 *tbc2013-03-29t13.flac
1c72acfe6386d26270a93b24df0f0fe8 *tbc2013-03-29t14.flac
6c0e7a58d61a040546f99e0fc058f76f *tbc2013-03-29t15.flac
15a3e8d8b0826882772324cb2c2a2992 *tbc2013-03-29t16.flac
8b1c395057a36e61bcdec104e2b4b60a *tbc2013-03-29t17.flac
df20666ed5b540ceca779ec8272b7b6b *tbc2013-03-29t18.flac
953999ef190672c0f1ecff531102a40d *tbc2013-03-29t19.flac
8b921837b91e86acd1d3292f0ad2a136 *tbc2013-03-29t20.flac
84a0cdb36fe82a6749121aa9b3586ec4 *tbc2013-03-29t21.flac

Comments
Add Comment
Other Sources (comments)
flac24;Source:... (0) flac16;Source:... (0) flac16;Source:... (0)
Date User Comment