Browse Collections Artists Sources   Search Dates

Add Show    List Management    Help


Black Crowes 03/29/13
The Forum, London, England
Comments Add Comment    Source Collectors    Add to Collection    Add to Want List    History
Source # 124345 Other Sources
Entered by ziko
Checksums md5 , ffp
Disc Counts 0 / 0
Media Size Compressed: 847.33 MB (888489902 bytes)
Date Circulated
Date Added
04/02/2013
04/07/2013
Source Summary flac16;Source: Audience recording > Audio Reality binaural mics > Zoom H2 > wav 24/96 Recorded FOB, directly in front of the board around 40" from the stage, just right of DFC. Lineage: wav 24/96 > Adobe Audition 1.5 > iZotope Ozone 5 Advanced > iZotope RX2 Advanced > wav 16/44.1 > CD Wave > TLH > Flac 16 
Source Information - Download Text | Download Zip
The Black Crowes
The Forum
London, England
03/29/2013

Source: Audience recording > Audio Reality binaural mics > Zoom H2 > wav 24/96

Recorded FOB, directly in front of the board around 40" from the stage, just right of DFC.

Lienage: wav 24/96 > Adobe Audition 1.5 > iZotope Ozone 5 Advanced > iZotope RX2 Advanced >
                 wav 16/44.1 > CD Wave > TLH > Flac 16



01   crowd/tuning
02   Jealous Again >
03   Thick 'N' Thin
04   Good Morning Captain
05   Hotel Illness
06   Medicated Goo
07   Wiser Time
08   Good Friday
09   She Talks to Angels
10   My Morning Song
11   High Head Blues
12   Soul Singing
13   Sister Luck
14   Thorn in My Pride
15   Remedy
16   Hard to Handle >
17   Hush > Hard To Handle (reprise)
18   crowd

encores

19   Seeing Things
20   Feelin' Allright
21   Willin'




Chris Robinson – vocals, harmonica
Rich Robinson - guitar, vocals
Jackie Greene – guitars, mandolin, vocals
Adam MacDougall – keyboards
Sven Pipien – bass
Steve Gorman – drums, percussion



This has to have been one of the loudest indoor gigs I've ever been to.  The floor is wooden and was vibrating so much that I felt it through my whole body.  I figured that at least my recording wouldn't be marred by anyone talking but if you're determined, you overcome this.  During 'Jealous Again" the guy next to me turned and put his mouth about 2 inches from my ear and decided to give me his opinion so far.  As my mics were taped to a pair of specs they picked it all up and as a bonus I got a generous helping of lager in my ear too.   Never assume anything!


recored, edited and mastered
SIRMick
March 2013


shntool output:

    length     expanded size    cdr  WAVE problems  fmt   ratio  filename
     0:57.24       10111292 B   ---   --   ---xx   flac  0.6201  tbc2013-03-29t01.flac
     6:31.42       69071228 B   ---   --   ---xx   flac  0.6670  tbc2013-03-29t02.flac
     3:05.63       32782220 B   ---   --   ---xx   flac  0.6913  tbc2013-03-29t03.flac
     3:50.65       40724924 B   ---   --   ---xx   flac  0.6756  tbc2013-03-29t04.flac
     4:27.05       47110604 B   ---   --   ---xx   flac  0.6936  tbc2013-03-29t05.flac
     6:12.32       65696108 B   ---   --   ---xx   flac  0.6837  tbc2013-03-29t06.flac
    15:31.50      164346044 B   ---   --   ---xx   flac  0.6374  tbc2013-03-29t07.flac
     6:20.35       67114364 B   ---   --   ---xx   flac  0.6215  tbc2013-03-29t08.flac
     6:47.17       71834828 B   ---   --   ---xx   flac  0.6300  tbc2013-03-29t09.flac
     6:59.67       74069228 B   ---   --   ---xx   flac  0.7221  tbc2013-03-29t10.flac
     6:40.07       70576508 B   ---   --   ---xx   flac  0.6688  tbc2013-03-29t11.flac
     4:28.02       47279948 B   ---   --   ---xx   flac  0.6579  tbc2013-03-29t12.flac
     7:14.27       76621148 B   ---   --   ---xx   flac  0.6556  tbc2013-03-29t13.flac
    11:38.72      123296588 B   ---   --   ---xx   flac  0.6555  tbc2013-03-29t14.flac
     5:53.32       62344508 B   ---   --   ---xx   flac  0.6895  tbc2013-03-29t15.flac
     4:03.56       42996956 B   ---   --   ---xx   flac  0.6755  tbc2013-03-29t16.flac
     4:28.13       47305820 B   ---   --   ---xx   flac  0.6904  tbc2013-03-29t17.flac
     2:33.54       27116252 B   ---   --   ---xx   flac  0.6020  tbc2013-03-29t18.flac
     7:53.58       83573660 B   ---   --   ---xx   flac  0.6165  tbc2013-03-29t19.flac
     6:44.60       71406764 B   ---   --   ---xx   flac  0.6713  tbc2013-03-29t20.flac
     5:15.64       55716572 B   ---   --   ---xx   flac  0.5982  tbc2013-03-29t21.flac
   127:39.20     1351095564 B                            0.6576  (21 files)

flac fingerprints:

tbc2013-03-29t01.flac:33b6a0298bc541e30a88c2e076b85d8e
tbc2013-03-29t02.flac:d2cf7097b6e45096475b0be31d9e7657
tbc2013-03-29t03.flac:a99ff3e291b374644337214582f772db
tbc2013-03-29t04.flac:0b155128e1bea60833865cf178f25024
tbc2013-03-29t05.flac:7632ebf54af6b60a2426b06ec3938a5c
tbc2013-03-29t06.flac:148b7b2d4febe8b6990cb7aeb0034174
tbc2013-03-29t07.flac:b941b9c36baca2957f64a5cf952c04aa
tbc2013-03-29t08.flac:176870cff0fd39a8e6ae23010bc87cc0
tbc2013-03-29t09.flac:4131cea1fe0276216c483f40806961c7
tbc2013-03-29t10.flac:e015c3798013dbd84a5815eed817e425
tbc2013-03-29t11.flac:30d3ed5753f8a7306f374d6f3da45d27
tbc2013-03-29t12.flac:5e053cfc3bc25b98d8c8629a686df99b
tbc2013-03-29t13.flac:1e890f70953f22d7b5c0055543a13248
tbc2013-03-29t14.flac:78dee75e501d7be33c31f20919619941
tbc2013-03-29t15.flac:8ea7d479478e977ee49889e9aad5c3a6
tbc2013-03-29t16.flac:80938a076e78330866c12b7be323c7bf
tbc2013-03-29t17.flac:f17510ed52686ff923c1132820330900
tbc2013-03-29t18.flac:c247de441b33d0f395361a1ec7dd1e20
tbc2013-03-29t19.flac:cc9580671e24feba7915860550dbedf9
tbc2013-03-29t20.flac:fb7ca7c696440040a06a7a43b69b785a
tbc2013-03-29t21.flac:a86a3762dda512d8443099eed0dfa387

Show Checksums
md5
3fc91812a0ae98bf5cf52cc53cfc1c9c *tbc2013-03-29t01.flac
5aa8d8f0aed686f19662d80e43d2f067 *tbc2013-03-29t02.flac
b79f821c23f983505ea6da47658ec4b4 *tbc2013-03-29t03.flac
30c88648cdf05fa7b9495ee5d429c821 *tbc2013-03-29t04.flac
ce15e8cdf7bb6d472c7dcb5d211aa9c9 *tbc2013-03-29t05.flac
acadb86b35962861a0c2da371a0e7197 *tbc2013-03-29t06.flac
1f8cf4473fed3b2c488e114902cd0b51 *tbc2013-03-29t07.flac
e407acd060c8184b685f3ca39a8261b0 *tbc2013-03-29t08.flac
65223af5b585f9724bc82f9060c344a7 *tbc2013-03-29t09.flac
3dccb12090fe7ccb37372c1af6357e43 *tbc2013-03-29t10.flac
bc55378036d0194853fd14c82870b928 *tbc2013-03-29t11.flac
dbc31ac014618bfa1ed6d71d1d7aab08 *tbc2013-03-29t12.flac
9d941adcf6fc6d483d28418d0f95d534 *tbc2013-03-29t13.flac
01316d624c68920ae97d3ba7a15fe053 *tbc2013-03-29t14.flac
1ac6c4d92db24446ad15dc8e9a27b89f *tbc2013-03-29t15.flac
3c3f467a202d5bcf97d4b646d8297129 *tbc2013-03-29t16.flac
0279a127a9f91db3222cc4e0a8aec60e *tbc2013-03-29t17.flac
68a5e6741e4ef63eb43f819c96e10473 *tbc2013-03-29t18.flac
e5906515defff7b6d947f5bf55b0498b *tbc2013-03-29t19.flac
3ea6c9142f59fffd9f547c3dd1012f4a *tbc2013-03-29t20.flac
a482be01272f2d7faf2fe2bfe6a2ef90 *tbc2013-03-29t21.flac
ffp
tbc2013-03-29t01.flac:33b6a0298bc541e30a88c2e076b85d8e
tbc2013-03-29t02.flac:d2cf7097b6e45096475b0be31d9e7657
tbc2013-03-29t03.flac:a99ff3e291b374644337214582f772db
tbc2013-03-29t04.flac:0b155128e1bea60833865cf178f25024
tbc2013-03-29t05.flac:7632ebf54af6b60a2426b06ec3938a5c
tbc2013-03-29t06.flac:148b7b2d4febe8b6990cb7aeb0034174
tbc2013-03-29t07.flac:b941b9c36baca2957f64a5cf952c04aa
tbc2013-03-29t08.flac:176870cff0fd39a8e6ae23010bc87cc0
tbc2013-03-29t09.flac:4131cea1fe0276216c483f40806961c7
tbc2013-03-29t10.flac:e015c3798013dbd84a5815eed817e425
tbc2013-03-29t11.flac:30d3ed5753f8a7306f374d6f3da45d27
tbc2013-03-29t12.flac:5e053cfc3bc25b98d8c8629a686df99b
tbc2013-03-29t13.flac:1e890f70953f22d7b5c0055543a13248
tbc2013-03-29t14.flac:78dee75e501d7be33c31f20919619941
tbc2013-03-29t15.flac:8ea7d479478e977ee49889e9aad5c3a6
tbc2013-03-29t16.flac:80938a076e78330866c12b7be323c7bf
tbc2013-03-29t17.flac:f17510ed52686ff923c1132820330900
tbc2013-03-29t18.flac:c247de441b33d0f395361a1ec7dd1e20
tbc2013-03-29t19.flac:cc9580671e24feba7915860550dbedf9
tbc2013-03-29t20.flac:fb7ca7c696440040a06a7a43b69b785a
tbc2013-03-29t21.flac:a86a3762dda512d8443099eed0dfa387

Comments
Add Comment
Other Sources (comments)
flac24;Source:... (0) flac16;Source:... (0) flac24;Source:... (0)
Date User Comment