Browse Collections Artists Sources   Search Dates

Add Show    List Management    Help


Grateful Dead 02/15/73
Dane County Coliseum, Madison, WI
Comments Add Comment    Source Collectors    Add to Collection    Add to Want List    History
Source # 124360 Other Sources
Entered by Matt Vernon
Checksums ffp , flac-md5
Disc Counts 0 / 0
Media Size Compressed: 1.26 GB (1357844916 bytes)
Uncompressed: 2.05 GB (2202863264 bytes)
Date Circulated
Date Added
04/09/2013
04/09/2013
Source Summary flac16; 2 Source Matrix by dusborne; Soundboard (shnid:1580): MR > D Latvala Reels @ 3 3/4 ips > DBX Reels @ 7 1/2 ips > PCM > DAT > CD and Audience (shnid:124195): two channel mono MAC> ? > normal bias cassettes (see notes) Two 60 minute and one 90 minute mid 70's vintage Memorex cassettes, Cassettes> Harmon Kardon TD 302, Heads aligned to each tape side> Zoom H2 @16/44.1> SD card> PC> edited and tracked with wavpad> flac level 8 and checksums with traders little helper 
  Archive
Source Information - Download Text | Download Zip
Grateful Dead
February 15, 1973
Dane County Coliseum
Madison, WI

2 Source Matrix

Soundboard (shnid:1580)
------------------------------------------------------------------------------------
gd1973-02-15.sbd.hall.1580.shnf

Source Summary:
MR > D Latvala Reels @ 3 3/4 ips > DBX Reels @ 7 1/2 ips > PCM > DAT > CD;
upgrade relative to previous shn copies; includes soundcheck and most of encores;
via Mike Hall; tracked for 2x74 + 1x80 (with alternate tracking suggestion)

MR > D Latvala Reels @ 3 3/4 ips > DBX Reels @ 7 1/2 ips > PCM > DAT > CD

.md5 and .shn's by Mike Hall ([email protected])


Audience (shnid:124195)
------------------------------------------------------------------------------------
gd1973-02-15.aud.partial.124195.flac

Audience recording

Lineage: two channel mono MAC> ? > normal bias cassettes (see npotes)
Two 60 minute and one 90 minute mid 70's vintage Memorex cassettes,
Cassettes> Harmon Kardon TD 302, Heads aligned to each tape side>
Zoom H2 @16/44.1> SD card> PC> edited and tracked with wavpad>
flac level 8 and checksums with traderslittlehelper

No equalization, noise reduction or other sweetening was performed
on what is hoped to be an accurate reflection of the source tapes.
Analog to digital transfer and all mastering by arfarf.
March 19, 2013

Notes:  I received these from a friend, (thanks Sue), who had received these from the
taper back in the day.  To my ears, it sounds like the first set and first two tracks
of the second set have an extra generation on them.  As first sets in this time frame
often contained over a half an hour of tuning and dead air, an edited or dubbing
"master" was used, whereas the Dark Star through the end of the show comprises two
continuous tape segments, no edits, and hence no edited "master" was needed.
There are analog edits on the tapes I worked with after every track on the first set,
after the first two tracks of the second set and after track 05 of the second set.
A tape flip occurs at the 05:34 mark of Set One track 05 as well.
Cuts to the music are indicated by the double slash marks, //.
-----------------------------------------------------------------------------------

---Thank you Dick Latvala for sharing copies of the master reels.
---Thank you Mike Hall for providing the SBD.
---Thank you Sue for sharing your AUD cassettes.
---Thank you Arfarf for transfering and mastering the AUD source.
---Thank you Germain for your advice, encouragement, guidance and seeding.

Matrix by dusborne

04-04-2013
-------------------------------------------------------------------------------------
Set 1

101 - gd73-02-15s1t01 - Loose Lucy
102 - gd73-02-15s1t02 - Beat It On Down The Line
103 - gd73-02-15s1t03 - Brown Eyed Women
104 - gd73-02-15s1t04 - Mexicali Blues
105 - gd73-02-15s1t05 - Tennessee Jed
106 - gd73-02-15s1t06 - Looks Like Rain
107 - gd73-02-15s1t07 - Box of Rain
108 - gd73-02-15s1t08 - Row Jimmy
109 - gd73-02-15s1t09 - Jack Straw
110 - gd73-02-15s1t10 - China Cat Sunflower ->
111 - gd73-02-15s1t11 - I Know You Rider
112 - gd73-02-15s1t12 - Me & My Uncle
113 - gd73-02-15s1t13 - Bertha
114 - gd73-02-15s1t14 - Playing In The Band
115 - gd73-02-15s1t15 - Casey Jones

Set 2

201 - gd73-02-15s2t01 - Here Comes Sunshine
202 - gd73-02-15s2t02 - El Paso
203 - gd73-02-15s2t03 - You Ain't Woman Enough *
204 - gd73-02-15s2t04 - They Love Each Other *
205 - gd73-02-15s2t05 - Big River *
206 - gd73-02-15s2t06 - Dark Star ->
207 - gd73-02-15s2t07 - Eyes of the World ->
208 - gd73-02-15s2t08 - China Doll
209 - gd73-02-15s2t09 - Promised Land
210 - gd73-02-15s2t10 - Sugaree
211 - gd73-02-15s2t11 - Sugar Magnolia

Encore

212 - gd73-02-15s2t12 - Uncle John's Band
213 - gd73-02-15s2t13 - One More Saturday Night

*SBD Only
-----------------------------------------------------------------------------------------

Tagging notes:
Show information is embedded within the header of each flac file.
It will display on any player capable of directly playing flac
files. If converted to wav during processing, all tags will be
stripped, however audio data will remain unaffected. If you must
transcode to a lossy format, do so directly Flac > Lossy.
Use ffp to validate audio integrity.
Md5 values will change if tagging is altered.

dusborne 04-04-2013
------------------------------------------------------------------------------------
  length     expanded size    cdr  WAVE problems  fmt   ratio  filename
     7:03.18       74659580 B   ---   --   ---xx   flac  0.6142  gd73-02-15s1t01.flac
     3:52.62       41070668 B   ---   --   ---xx   flac  0.6217  gd73-02-15s1t02.flac
     4:54.36       51946316 B   ---   --   ---xx   flac  0.6086  gd73-02-15s1t03.flac
     3:33.70       37737884 B   ---   --   ---xx   flac  0.6248  gd73-02-15s1t04.flac
     8:01.14       84881372 B   ---   --   ---xx   flac  0.6123  gd73-02-15s1t05.flac
     7:30.41       79476476 B   ---   --   ---xx   flac  0.6151  gd73-02-15s1t06.flac
     5:14.64       55540172 B   ---   --   ---xx   flac  0.6126  gd73-02-15s1t07.flac
     7:57.04       84152252 B   ---   --   ---xx   flac  0.6111  gd73-02-15s1t08.flac
     4:51.01       51334796 B   ---   --   ---xx   flac  0.6364  gd73-02-15s1t09.flac
     6:32.07       69165308 B   ---   --   ---xx   flac  0.6485  gd73-02-15s1t10.flac
     5:22.17       56840828 B   ---   --   ---xx   flac  0.6472  gd73-02-15s1t11.flac
     2:58.00       31399244 B   ---   --   ---xx   flac  0.6269  gd73-02-15s1t12.flac
     5:51.59       62055212 B   ---   --   ---xx   flac  0.6422  gd73-02-15s1t13.flac
    15:18.44      162038732 B   ---   --   ---xx   flac  0.6369  gd73-02-15s1t14.flac
     6:49.69       72309932 B   ---   --   ---xx   flac  0.6139  gd73-02-15s1t15.flac
     9:53.59      104744012 B   ---   --   ---xx   flac  0.6352  gd73-02-15s2t01.flac
     4:33.35       48239564 B   ---   --   ---xx   flac  0.6194  gd73-02-15s2t02.flac
     3:32.30       37467404 B   ---   --   ---xx   flac  0.6332  gd73-02-15s2t03.flac
     4:50.29       51224252 B   ---   --   ---xx   flac  0.6138  gd73-02-15s2t04.flac
     4:40.12       49420268 B   ---   --   ---xx   flac  0.6142  gd73-02-15s2t05.flac
    19:17.21      204144236 B   ---   --   ---xx   flac  0.5850  gd73-02-15s2t06.flac
    20:05.29      212630252 B   ---   --   ---xx   flac  0.6312  gd73-02-15s2t07.flac
     7:07.70       75487484 B   ---   --   ---xx   flac  0.5988  gd73-02-15s2t08.flac
     4:12.26       44513996 B   ---   --   ---xx   flac  0.6070  gd73-02-15s2t09.flac
     9:47.26      103607996 B   ---   --   ---xx   flac  0.5783  gd73-02-15s2t10.flac
     9:44.64      103168172 B   ---   --   ---xx   flac  0.6290  gd73-02-15s2t11.flac
     7:34.57       80219708 B   ---   --   ---xx   flac  0.5946  gd73-02-15s2t12.flac
     6:56.02       73387148 B   ---   --   ---xx   flac  0.5890  gd73-02-15s2t13.flac
   208:07.66     2202863264 B                            0.6164  (28 files)


Show Checksums
ffp
gd73-02-15s1t01.flac:000e57a1d2cf794ef18cd70f8dd153f2
gd73-02-15s1t02.flac:184a02fd4ba803dc6e3e2f3a0687b3e0
gd73-02-15s1t03.flac:98d1481ce2c90752eb1f7f40e89a5ce8
gd73-02-15s1t04.flac:17740dab90ce78d224b8c4c33a847197
gd73-02-15s1t05.flac:b68da80cc95b9451c87de8de5e3f55d6
gd73-02-15s1t06.flac:0b19d8babdb406c383127784d1636d75
gd73-02-15s1t07.flac:ae2202b162493a6d595de277b96fdf68
gd73-02-15s1t08.flac:4f507cec226942cd2caff142c5e8d07d
gd73-02-15s1t09.flac:4573f601bf9be93cb114b95b24641f5f
gd73-02-15s1t10.flac:d8165e6c489720fab76906d581ef3e6b
gd73-02-15s1t11.flac:29cbc5cd0c49ff145935bd936519f539
gd73-02-15s1t12.flac:0fba0df2cecbf92e0a2418f0b99b346f
gd73-02-15s1t13.flac:beb41d6c6e02655e63245ce2cd2d9a76
gd73-02-15s1t14.flac:69623a69a1f4d83fff6653ad98c2d053
gd73-02-15s1t15.flac:c151494a223ecedcda90535dd2f7e45c
gd73-02-15s2t01.flac:b153e99a7f6657cd49c43714e1991e7a
gd73-02-15s2t02.flac:2d3c1a5206741d8a9ab6fdbaec7c821b
gd73-02-15s2t03.flac:4433ac102a565c2c020abcb4fdd00a84
gd73-02-15s2t04.flac:0325013d2fee8c3329f78fc362de51e2
gd73-02-15s2t05.flac:eccc72556e04d52336f39ea165ff6cb6
gd73-02-15s2t06.flac:d2545b257b73ac5be637166c3b5182b4
gd73-02-15s2t07.flac:7e7dd7218aed5cb13e7152880cbb1a0e
gd73-02-15s2t08.flac:b7e398cae63d18ff704b49680e13f69e
gd73-02-15s2t09.flac:57df029d03b822a539ec2d11e4ec3cf4
gd73-02-15s2t10.flac:385b529cf76f26df5b500d584bd6fe28
gd73-02-15s2t11.flac:56a6c4ef7ddf2fe2ae9b2b4c651cac3a
gd73-02-15s2t12.flac:cc33b4a30553784efc0072ba095c23f3
gd73-02-15s2t13.flac:4b9014e0daeb4786feacdef41f0ca31c
flac-md5
21d1ed4b469312fc632d1c6b9a55a5b0 *gd73-02-15s1t01.flac
dc1fa87404cfbc9dc072e8a1edce6d9f *gd73-02-15s1t02.flac
cfba8913a45b995b80fdaa534fc34221 *gd73-02-15s1t03.flac
38a9607bc006851cd8fb0bf9c0adb8c8 *gd73-02-15s1t04.flac
80444aeb022972d33737538118bf90ea *gd73-02-15s1t05.flac
1ac530ea1fdab2cec243d278ff842f04 *gd73-02-15s1t06.flac
35da4145cbf061eb715baa448c74415c *gd73-02-15s1t07.flac
544f492a431005b0ee187dc034e51f86 *gd73-02-15s1t08.flac
07e6c9448a270915464bf032753d53ee *gd73-02-15s1t09.flac
50bdd7e9fc332f6b726c3bd1e3d79a68 *gd73-02-15s1t10.flac
464778926c7f93c5c35324dc8fe0a4b3 *gd73-02-15s1t11.flac
6ae1e3cafdca7e29ae8388a345177d86 *gd73-02-15s1t12.flac
a693df081cb10367b8f100b26e3261b9 *gd73-02-15s1t13.flac
787b5d5e486890e4632843cf2dc44f6d *gd73-02-15s1t14.flac
d8485267a437126bea6997d1fe7bd52f *gd73-02-15s1t15.flac
e9ee12b12b3d6987adf2bc52c5837b25 *gd73-02-15s2t01.flac
baf757c401090d6b91579d24ef15ce38 *gd73-02-15s2t02.flac
4ed663260db7fe5ea25e63a3da99e46d *gd73-02-15s2t03.flac
a503256bf1c065734cd0bd7ec9ad064e *gd73-02-15s2t04.flac
d0ce78d1ebdde99322d538e52ade723d *gd73-02-15s2t05.flac
c7987f010f37ab5da513a66d080a22a7 *gd73-02-15s2t06.flac
f130edf33bc174ad32af95fc0aff8d41 *gd73-02-15s2t07.flac
6d07f5fb1723850eea799860b4ee9c16 *gd73-02-15s2t08.flac
a281d7f7c41b8ed717672ab3c44c871f *gd73-02-15s2t09.flac
db94e210c31fe7713ae340a767aed848 *gd73-02-15s2t10.flac
f6338102d547e3dd9cdb8ef54d48faec *gd73-02-15s2t11.flac
3730d9c5b6826f4236acd93f12239522 *gd73-02-15s2t12.flac
d4f74be6696a34c0fc9763ff953e8de8 *gd73-02-15s2t13.flac

Comments
Add Comment
Other Sources (comments)
MR > D Latvala Reels @ 3... (2) flac16; Lineage:... (1) flac16; two channel... (0) flac24; Recording... (0) flac16; Recording... (0)
Date User Comment