Browse Collections Artists Sources   Search Dates

Add Show    List Management    Help


Grateful Dead 11/02/79
Nassau Coliseum, Uniondale, NY
Comments Add Comment    Source Collectors    Add to Collection    Add to Want List    History
Source # 124392 Other Sources
Entered by Matt Vernon
Checksums flac-md5 , ffp
Disc Counts 0 / 0
Media Size Compressed: 1.67 GB (1791260560 bytes)
Date Circulated
Date Added
04/13/2013
04/13/2013
Source Summary flac16; Matrix by Hunter Seamons using Final Cut Pro (SHN & FLAC > AIFF > Final Cut > AIFF CD tracking via Audacity > FLAC16 via xACT w/meta-tagging) 
  Archive
Source Information - Download Text | Download Zip
Grateful Dead
Nassau Coliseum
Uniondale, NY
November 2, 1979

Jerry Garcia - Lead Guitar, Vocals
Mickey Hart - Drums
Bill Kreutzmann - Drums
Phil Lesh - Electric Bass, Vocals
Brent Mydland - Keyboards, Vocals
Bob Weir - Rhythm Guitar, Vocals


*Matrix*


-----------------------------------------------------------------
SBD (shnid=7920):

SBD>MC>Dick's cassette>DAT>CD.

aud patch for first 2 minutes of Mississippi 1/2 Step.

[email protected]
20th Feb 2002

-----------------------------------------------------------------
AUD (shnid=94220):

MotB Release: 0077/16 bit
Release Date: 2008-08-27
Band: Grateful Dead
Date: 1979-11-02 (Friday)
Venue: Nassau Veterans Memorial Coliseum
Location: Uniondale, N.Y.
Analog Audience Source: Just in front of SBD (MAC)
Media: 2 x Maxell UD-XLII 90 min
Analog Lineage: 2 x Nakamichi CM-700's => Sony TCD5 >> 37th Row Center on the Pole >> MAC >> Nakamichi DR-1 >> Benchmark ADC-1 >> AES >> Sound Devices 722 >> 24/96 WAV
Taped by: B. Glassberg
Transfer by: A. Egert
Mastering by: B. Green

Notes:

-This is the first set of shows with an official tapers section as per Barry Glassberg. Healy roped off an area just in front of the board and gave Barry control over the area. Barry made up stickers to gain entry behind the barricade for the section. Needless to say he invited his friends! They used this for the run. This being said the sound is a little distant yet front of board.

- Jerry's inaudible until the first chorus in Mississippi Half Step when he is finally turned on.

--------------------------------------------------------------------
Thank you to Alasdair Macdonald for the SBD transfer of Dick's tape,
to Barry Glassberg for recording the show,
to Adam Egert & Brian Green for the AUD transfer,
and to Joe B. Jones for verifying pitch.

Matrix by Hunter Seamons using Final Cut Pro (SHN & FLAC > AIFF > Final Cut > AIFF CD tracking via Audacity > FLAC16 via xACT w/meta-tagging)
April 13, 2013


Set I
-----
d1t01 - Tuning
d1t02 - Mississippi Halfstep Uptown Toodeloo ->
d1t03 - Franklin's Tower
d1t04 - El Paso ->
d1t05 - Mexicali Blues
d1t06 - Tennessee Jed
d1t07 - Lazy Lightning ->
d1t08 - Supplication
d1t09 - Deal

Set II
-----
d2t01 - Tuning
d2t02 - I Need a Miracle ->
d2t03 - Bertha ->
d2t04 - Lost Sailor ->
d2t05 - Saint of Circumstance -> Jam ->
d2t06 - Drums ->
d3t01 - Space ->
d3t02 - Not Fade Away ->
d3t03 - Stella Blue ->
d3t04 - Sugar Magnolia

Encore
------
d3t05 - Casey Jones



Notes:

1) "LSD" is spelled in both sets (which was no accident).

2) Both SBD and AUD were missing about 40 seconds of the same Drums segment, which was patched with Gerry Moskal's recording, transferred by Brian Mandel (SHNID=96553). The other available SBD and AUD sources were also missing this segment, so we got lucky here and the show is now complete. Thanks Gerry and Brian!

3) This was Charlie Miller's first show.



    length     expanded size    cdr  WAVE problems  fmt   ratio  filename
     1:46.23       18752540 B   ---   --   ---xx   flac  0.6377  gd79-11-02d1t01.flac
    11:02.38      116866220 B   ---   --   ---xx   flac  0.6389  gd79-11-02d1t02.flac
    20:28.08      216638060 B   ---   --   ---xx   flac  0.6531  gd79-11-02d1t03.flac
     4:20.16       45901676 B   ---   --   ---xx   flac  0.6312  gd79-11-02d1t04.flac
     6:07.05       64750604 B   ---   --   ---xx   flac  0.6300  gd79-11-02d1t05.flac
    12:40.17      134104028 B   ---   --   ---xx   flac  0.6195  gd79-11-02d1t06.flac
     3:27.12       36543068 B   ---   --   ---xx   flac  0.6662  gd79-11-02d1t07.flac
     6:51.47       72610988 B   ---   --   ---xx   flac  0.6359  gd79-11-02d1t08.flac
     5:50.60       61881164 B   ---   --   ---xx   flac  0.6657  gd79-11-02d1t09.flac
     3:41.40       39078524 B   ---   --   ---xx   flac  0.5648  gd79-11-02d2t01.flac
     5:29.04       58045052 B   ---   --   ---xx   flac  0.6581  gd79-11-02d2t02.flac
     7:02.05       74452604 B   ---   --   ---xx   flac  0.6629  gd79-11-02d2t03.flac
     6:45.37       71529068 B   ---   --   ---xx   flac  0.6206  gd79-11-02d2t04.flac
    19:15.32      203817308 B   ---   --   ---xx   flac  0.6537  gd79-11-02d2t05.flac
     9:29.00      100371644 B   ---   --   ---xx   flac  0.6437  gd79-11-02d2t06.flac
     4:42.13       49775420 B   ---   --   ---xx   flac  0.6392  gd79-11-02d3t01.flac
    10:19.08      109210460 B   ---   --   ---xx   flac  0.6436  gd79-11-02d3t02.flac
     9:51.12      104280668 B   ---   --   ---xx   flac  0.6077  gd79-11-02d3t03.flac
    13:24.59      141964412 B   ---   --   ---xx   flac  0.6433  gd79-11-02d3t04.flac
     6:40.54       70687052 B   ---   --   ---xx   flac  0.6727  gd79-11-02d3t05.flac
   169:14.40     1791260560 B                            0.6414  (20 files)


Show Checksums
flac-md5
16e3766978efb8bb5b54eb4b0721f79d *gd79-11-02d1t01.flac
92e613580140f3d7584c5343a4877641 *gd79-11-02d1t02.flac
b51f4d508de7bf191d959d5978d5361a *gd79-11-02d1t03.flac
77309439a717278c76aa3e19076e72b5 *gd79-11-02d1t04.flac
8dd8d5f0898f4088b236d60907b3e8b6 *gd79-11-02d1t05.flac
765559aa88a79850e497cfd8967de2e8 *gd79-11-02d1t06.flac
c05f1c27d9823f2d35a8ed0f690bc27a *gd79-11-02d1t07.flac
86d4051cca7f21b3e863c3a347e53153 *gd79-11-02d1t08.flac
d9b3a4a835d657f370fbbbd6a1111941 *gd79-11-02d1t09.flac
d9846a74bcc15511fc4f0e41e91a3183 *gd79-11-02d2t01.flac
9806fe81902fd2dae00c3d9b87ebb095 *gd79-11-02d2t02.flac
fc4c1e4edc357dc5e6c25f1fd8cc8ab4 *gd79-11-02d2t03.flac
56713586140db1c23bcb273680a52d88 *gd79-11-02d2t04.flac
2dddf96caa632b0c134de0d745b76527 *gd79-11-02d2t05.flac
09bbec64a3e7bd201dc51d4bc837cf0c *gd79-11-02d2t06.flac
0dd5c0c9088c087087a409a03a43ebe8 *gd79-11-02d3t01.flac
cd5fa5f26905e26171a6ba4f411cf680 *gd79-11-02d3t02.flac
042d9d3b705b923f0404d84239a09743 *gd79-11-02d3t03.flac
4640d5acf763f9248d205de205c1ae6b *gd79-11-02d3t04.flac
e68ec8c6240e2048e9da65581d2a34c6 *gd79-11-02d3t05.flac
ffp
gd79-11-02d1t01.flac:f09dfc804471e05a975419ecfa9d8851
gd79-11-02d1t02.flac:c64a0967e506034a3432148953248c18
gd79-11-02d1t03.flac:4c6de270ae79fde2792a3681a8377420
gd79-11-02d1t04.flac:f0351bb74f4dff9e9019a449de8e6a57
gd79-11-02d1t05.flac:01477532f96a9ab53a8f513b959e53b6
gd79-11-02d1t06.flac:1c419c79fecacefdd2c34ea86dbd2fd6
gd79-11-02d1t07.flac:6f2d6ec6f01bdb042df336dac3e651cf
gd79-11-02d1t08.flac:fc0e99a10be58b9939c8d23456e0f331
gd79-11-02d1t09.flac:a1de4aeaec4a02deaa29b41dc79246ed
gd79-11-02d2t01.flac:22187ed4f2cf3b9e7f0fa5261c02ca71
gd79-11-02d2t02.flac:944d4f29723b381e29ab2b24f112e25e
gd79-11-02d2t03.flac:dc706d395cc69b6c251c4366b8bb5030
gd79-11-02d2t04.flac:127eea65a30240a8612f8606bc574c9d
gd79-11-02d2t05.flac:5d07c13f81a5b485ddd8f3be251aa6ba
gd79-11-02d2t06.flac:c77530d7fecb8c72d54032412605858d
gd79-11-02d3t01.flac:03cb3bfa255313226822a09dc106927e
gd79-11-02d3t02.flac:382c1409f633902a8abd20c1fc9d4eb1
gd79-11-02d3t03.flac:79d97f26a0de835888bce0903c771b88
gd79-11-02d3t04.flac:88ce0f90692d246c09aa14c3cceefd65
gd79-11-02d3t05.flac:3d93ebf6c230bebdf7033ed64725498c

Comments
Add Comment
Other Sources (comments)
SBD > Cass (Dolby S) > Nak... (1) SBD> MR> Dick's cassette>... (1) AUD> MC> DAT> CDR; via Paul... (0) flac16; 2 x... (0) flac24; 2 x... (0) flac16; Taper: Gerry... (0) flac16/48kHz;... (0)
Date User Comment