Browse Collections Artists Sources   Search Dates Setlists

Add Show    List Management    Forums    Help


Little Feat 01/16/13
Count Basie Theatre, Red Bank, NJ
Comments Add Comment    Source Collectors    Add to Collection    Add to Want List    History
Source # 124418 Other Sources
Entered by Albix
Checksums flac.ffp , flac.md5
Disc Counts 1 / 2
Media Size Compressed: 531.99 MB (557829204 bytes)
Date Circulated
Date Added
06/14/2013
04/16/2013
Source Summary flac16; MAC; (FOB) Sennheiser e835's > Sony D5 > 2 Maxell XLII 90's
Location: Row O (17th row), seat 110, orchestra center
Transfer/Lineage: Master Audience Cassettes> Nakamichi Dragon> Lunatec V3 (@24/88.2)>
Lynx AES16e> WaveLab 7.2.1> .wav @24/88.2> Crystal Resampler/UV22HR> .wav @16/44.1> XAct> flac16.
Taper: Mark McCue
Transfer, editing and mastering: Alex Ford 
  Archive
Source Information - Download Text | Download Zip
Little Feat
01/16/2013 - Wednesday
Count Basie Theatre
Red Bank, NJ

Source: MAC; (FOB) Sennheiser e835's > Sony D5 > 2 Maxell XLII 90's

Location: Row O (17th row), seat 110, orchestra center

Transfer/Lineage: Master Audience Cassettes> Nakamichi Dragon> Lunatec V3 (@24/88.2)>
Lynx AES16e> WaveLab 7.2.1> .wav @24/88.2> Crystal Resampler/UV22HR> .wav @16/44.1> XAct> flac16.

Taper: Mark McCue
Transfer, editing and mastering: Alex Ford

CD I: [68:40]

01. High Roller
02. Spanish Moon
03. One Breath At A Time
04. Salome
05. Willin’* >
06. Don’t Bogart That Joint* >
07. Willin’*
08. Rooster Rag
09. Dixie Chicken (trumpet intro)>
10. Bass jam >
11. Key/Drum jam >
12. Dixie Chicken

CD II: [20:34]

01. Fat Man In The Bathtub >
02. Abba Zaba >
03. Bass/Boogie On Reggae Woman >
04. Fat Man In The Bathtub
Encore:
05. Oh Atlanta


Comments:

- with Leon Russell, rescheduled show from the November 10th Asbury Park performance date.
- * with Beau Charron on pedal steel guitar from Leon Russell's band.

Taper comment:

A BIG thank you to Little Feat, Chris Cafiero and the Little Feat crew
for their warm hospitality and a hassle free taping experience!

Notes:

- All editing and mastering with UAD-2 in 24/88.2
- Metadata with Tag&Rename. SBE Free.


Shntool Output:

    length     expanded size    cdr  WAVE problems  fmt   ratio  filename
     6:43.49       71204492 B   ---   --   -----    wav  1.0000  lf2013-01-16.aud.mccue.d1t01.wav
     8:08.28       86149100 B   ---   --   -----    wav  1.0000  lf2013-01-16.aud.mccue.d1t02.wav
     6:20.16       67069676 B   ---   --   -----    wav  1.0000  lf2013-01-16.aud.mccue.d1t03.wav
     7:15.12       76762268 B   ---   --   -----    wav  1.0000  lf2013-01-16.aud.mccue.d1t04.wav
     9:38.52      102081548 B   ---   --   -----    wav  1.0000  lf2013-01-16.aud.mccue.d1t05.wav
     1:18.58       13895660 B   ---   --   -----    wav  1.0000  lf2013-01-16.aud.mccue.d1t06.wav
     1:08.06       12009356 B   ---   --   -----    wav  1.0000  lf2013-01-16.aud.mccue.d1t07.wav
     6:49.66       72302876 B   ---   --   -----    wav  1.0000  lf2013-01-16.aud.mccue.d1t08.wav
     5:02.45       53378684 B   ---   --   -----    wav  1.0000  lf2013-01-16.aud.mccue.d1t09.wav
     1:34.02       16586348 B   ---   --   -----    wav  1.0000  lf2013-01-16.aud.mccue.d1t10.wav
     5:14.39       55481372 B   ---   --   -----    wav  1.0000  lf2013-01-16.aud.mccue.d1t11.wav
     9:26.32       99917708 B   ---   --   -----    wav  1.0000  lf2013-01-16.aud.mccue.d1t12.wav
     8:19.06       88037756 B   ---   --   -----    wav  1.0000  lf2013-01-16.aud.mccue.d2t01.wav
     2:38.37       27958268 B   ---   --   -----    wav  1.0000  lf2013-01-16.aud.mccue.d2t02.wav
     0:49.39        8735372 B   ---   --   -----    wav  1.0000  lf2013-01-16.aud.mccue.d2t03.wav
     3:50.33       40649660 B   ---   --   -----    wav  1.0000  lf2013-01-16.aud.mccue.d2t04.wav
     4:56.51       52334396 B   ---   --   -----    wav  1.0000  lf2013-01-16.aud.mccue.d2t05.wav
    89:14.46      944554540 B                            1.0000  (17 files)





Show Checksums
flac.ffp
lf2013-01-16.aud.mccue.d1t01.flac:75d8269610bbc6812092f1e7b107c433
lf2013-01-16.aud.mccue.d1t02.flac:d8feb0ec1dae0e5a292a257b3ed410bc
lf2013-01-16.aud.mccue.d1t03.flac:d5bf6ab5f5f8ce0bbd64a92c70557d8f
lf2013-01-16.aud.mccue.d1t04.flac:3ec6887f438ef0aaed500906c455f842
lf2013-01-16.aud.mccue.d1t05.flac:5d7bb45808366a1a4b926e75ecd8483f
lf2013-01-16.aud.mccue.d1t06.flac:5975a0f2b77594b12fb9683f2a4e1d29
lf2013-01-16.aud.mccue.d1t07.flac:e840d590c1de876d56562a05e9220878
lf2013-01-16.aud.mccue.d1t08.flac:37996e1e18ff00d46f1275ea7a8fbeb0
lf2013-01-16.aud.mccue.d1t09.flac:e6431b8a3a9b99f07a394256927e2c87
lf2013-01-16.aud.mccue.d1t10.flac:ae8a19b63d1ec33f7afb9d3aaf26c83b
lf2013-01-16.aud.mccue.d1t11.flac:8c2dbf86d6a380ebb40fdc982572d1ea
lf2013-01-16.aud.mccue.d1t12.flac:6e6faf519fcabcf2b753cde25d712aef
lf2013-01-16.aud.mccue.d2t01.flac:8bfcf5d8c747afa2e425f5105c06eb18
lf2013-01-16.aud.mccue.d2t02.flac:0c66d40fe5a5b14e0582220b141dd5b3
lf2013-01-16.aud.mccue.d2t03.flac:6ee3e06fa54cea6bfce3e2881255a683
lf2013-01-16.aud.mccue.d2t04.flac:865e107f108e67f9e6db2d36ad318335
lf2013-01-16.aud.mccue.d2t05.flac:469b1a81e488863f6667573f567dd4c0
flac.md5
929436f82bca7431b4453ee54e0c696e *lf2013-01-16.aud.mccue.d1t01.flac
28048eaa3e7735e329d7d98412de9995 *lf2013-01-16.aud.mccue.d1t02.flac
fd1edaaea5bf2f12866b97cbfa8987cf *lf2013-01-16.aud.mccue.d1t03.flac
35f6a043b6e32428ea55087b0c16084c *lf2013-01-16.aud.mccue.d1t04.flac
dbc72f9802afdf669c07b717f6e8fc4f *lf2013-01-16.aud.mccue.d1t05.flac
748f305f398b9cb58a9ec8bee4695735 *lf2013-01-16.aud.mccue.d1t06.flac
741dc0318af6ac0898f75860c2b48142 *lf2013-01-16.aud.mccue.d1t07.flac
940ad9f14756f5502978e8145abbff8d *lf2013-01-16.aud.mccue.d1t08.flac
dacc9c4a993ccff06430c9a410d48e4c *lf2013-01-16.aud.mccue.d1t09.flac
a979b1ae4e844c267e36371e0f9aaed7 *lf2013-01-16.aud.mccue.d1t10.flac
7f7e97856414c300ad6087c2698b5576 *lf2013-01-16.aud.mccue.d1t11.flac
971213465e9d2da8f638a17113f9984e *lf2013-01-16.aud.mccue.d1t12.flac
28460c746fef960d08a9d7dbcdcd6893 *lf2013-01-16.aud.mccue.d2t01.flac
7b94e6c4d087920b70b1d1197a84702e *lf2013-01-16.aud.mccue.d2t02.flac
e5ab4ef20390ce4ff25a9598de2b60be *lf2013-01-16.aud.mccue.d2t03.flac
2de719eb6e14dc1d1e780161fa6b8273 *lf2013-01-16.aud.mccue.d2t04.flac
23f82a793b91ea69a36c3a761773455a *lf2013-01-16.aud.mccue.d2t05.flac

Comments
Add Comment
Date User Comment