Browse Collections Artists Sources   Search Dates

Add Show    List Management    Help


Grateful Dead 12/12/73
The Omni, Atlanta, GA
Comments Add Comment    Source Collectors    Add to Collection    Add to Want List    History
Source # 124585 Other Sources
Entered by Matt Vernon
Checksums flac-md5 , ffp
Disc Counts 0 / 0
Media Size Compressed: 1.31 GB (1411441452 bytes)
Uncompressed: 2.37 GB (2549108636 bytes)
Date Circulated
Date Added
05/16/2012
05/17/2013
Source Summary flac16; Recording Info: SBD -> Master Reel -> Cassette -> Dat -> CD; Transfer Info: CD -> Adobe Audition v3.0 -> Samplitude Professional v11.2.1 -> FLAC; All Transfers and Mastering By Charlie Miller; This is a re-master of source ID 105561 
  Archive
Source Information - Download Text | Download Zip
Grateful Dead - December 12, 1973
The Omni - Atlanta, GA

Recording Info:
SBD -> Master Reel -> Cassette -> Dat -> CD

Transfer Info:
CD -> Adobe Audition v3.0 -> Samplitude Professional v11.2.1 -> FLAC
(4 Discs Audio / 1 DVD FLAC)

All Transfers and Mastering By Charlie Miller
[email protected]
May 11, 2013

Notes:
-- All disc changes are seamless
-- This is a re-master of shnid=105561
-- Tape flip in Me And My Uncle and Playing In The Band at 6:30
-- Thanks to Matt Smith for the last 2 tracks
-- Thanks to Joe B. Jones for his help with the pitch correction

Soundcheck:
d1t01 - Sleigh Ride
d1t02 - Rip It Up
d1t03 - Blue Suede Shoes
d1t04 - Peggy-O
d1t05 - Jack Straw
d1t06 - Cumberland Blues
d1t07 - Thirty Days

Set 1:
d1t08 - Tuning
d1t09 - Promised Land
d1t10 - Sugaree
d1t11 - Mexicali Blues
d1t12 - Tennessee Jed
d1t13 - Jack Straw
d1t14 - Don't Ease Me In
d1t15 - Looks Like Rain
d1t16 - They Love Each Other
d2t01 - El Paso
d2t02 - Peggy-O
d2t03 - Beat It On Down The Line
d2t04 - Brown Eyed Women
d2t05 - Big River
d2t06 - Deal
d2t07 - Playing In The Band

Set 2:
d2t08 - Mississippi Half-Step Uptown Toodeloo ->
d2t09 - Me And Bobby McGee
d2t10 - China Cat Sunflower ->
d2t11 - I Know You Rider
d2t12 - Tico Tico
d3t01 - Greatest Story Ever Told
d3t02 - Row Jimmy
d3t03 - Weather Report Suite
d3t04 - Wharf Rat ->
d3t05 - Me And My Uncle
d3t06 - Eyes Of The World ->
d3t07 - Morning Dew
d3t08 - Happy Birthday Dicky Betts
d4t01 - Sugar Magnolia

Encore:
xxxxx - Casey Jones (MISSING)


SHNTOOL OUTPUT:
    length     expanded size    cdr  WAVE problems  fmt   ratio  filename
     5:19.27       56335148 B   ---   --   ---xx   flac  0.4368  gd73-12-12d1t01.flac
     2:31.33       26714060 B   ---   --   ---xx   flac  0.5053  gd73-12-12d1t02.flac
     4:11.32       44351708 B   ---   --   ---xx   flac  0.4695  gd73-12-12d1t03.flac
     7:33.38       79998620 B   ---   --   ---xx   flac  0.4677  gd73-12-12d1t04.flac
     5:28.30       57929804 B   ---   --   ---xx   flac  0.4814  gd73-12-12d1t05.flac
     5:46.34       61114412 B   ---   --   ---xx   flac  0.5103  gd73-12-12d1t06.flac
     1:20.11       14137916 B   ---   --   ---xx   flac  0.5077  gd73-12-12d1t07.flac
     0:32.48        5757740 B   ---   --   ---xx   flac  0.5067  gd73-12-12d1t08.flac
     3:13.41       34141676 B   ---   --   ---xx   flac  0.6194  gd73-12-12d1t09.flac
     7:37.72       80784188 B   ---   --   ---xx   flac  0.5699  gd73-12-12d1t10.flac
     3:31.42       37319228 B   ---   --   ---xx   flac  0.5962  gd73-12-12d1t11.flac
     8:18.32       87922508 B   ---   --   ---xx   flac  0.5702  gd73-12-12d1t12.flac
     5:18.08       56114060 B   ---   --   ---xx   flac  0.5851  gd73-12-12d1t13.flac
     3:45.33       39767660 B   ---   --   ---xx   flac  0.5817  gd73-12-12d1t14.flac
     7:13.52       76503548 B   ---   --   ---xx   flac  0.5641  gd73-12-12d1t15.flac
     5:36.74       59444492 B   ---   --   ---xx   flac  0.5740  gd73-12-12d1t16.flac
     4:39.32       49290908 B   ---   --   ---xx   flac  0.5795  gd73-12-12d2t01.flac
     5:59.71       63494636 B   ---   --   ---xx   flac  0.5699  gd73-12-12d2t02.flac
     3:27.21       36564236 B   ---   --   ---xx   flac  0.5987  gd73-12-12d2t03.flac
     5:12.37       55123868 B   ---   --   ---xx   flac  0.5668  gd73-12-12d2t04.flac
     5:04.07       53642108 B   ---   --   ---xx   flac  0.5885  gd73-12-12d2t05.flac
     4:57.20       52437884 B   ---   --   ---xx   flac  0.5768  gd73-12-12d2t06.flac
    22:12.16      235002476 B   ---   --   ---xx   flac  0.5721  gd73-12-12d2t07.flac
     7:31.69       79718732 B   ---   --   ---xx   flac  0.5811  gd73-12-12d2t08.flac
     5:25.43       57431180 B   ---   --   ---xx   flac  0.5766  gd73-12-12d2t09.flac
     8:21.33       88454060 B   ---   --   ---xx   flac  0.6005  gd73-12-12d2t10.flac
     5:05.05       53813804 B   ---   --   ---xx   flac  0.5753  gd73-12-12d2t11.flac
     1:47.66       19030076 B   ---   --   ---xx   flac  0.5044  gd73-12-12d2t12.flac
     5:51.03       61923500 B   ---   --   ---xx   flac  0.5702  gd73-12-12d3t01.flac
     9:12.25       97431644 B   ---   --   ---xx   flac  0.5431  gd73-12-12d3t02.flac
    16:19.06      172709756 B   ---   --   ---xx   flac  0.5523  gd73-12-12d3t03.flac
     9:16.04       98087852 B   ---   --   ---xx   flac  0.5355  gd73-12-12d3t04.flac
     2:57.05       31234604 B   ---   --   ---xx   flac  0.5758  gd73-12-12d3t05.flac
    12:40.54      134191052 B   ---   --   ---xx   flac  0.5546  gd73-12-12d3t06.flac
    16:47.30      177705404 B   ---   --   ---xx   flac  0.5163  gd73-12-12d3t07.flac
     0:39.28        6945500 B   ---   --   ---xx   flac  0.5008  gd73-12-12d3t08.flac
    10:03.72      106538588 B   ---   --   ---xx   flac  0.5815  gd73-12-12d4t01.flac
   240:50.54     2549108636 B                            0.5537  (37 files)




Show Checksums
flac-md5
bffc494a28458452c10859cd48f8d8f3 *gd73-12-12d1t01.flac
dcea5693f4c4886ce8a82b910652fd4d *gd73-12-12d1t02.flac
1d9020c211c1fe6610fcdad24e71595f *gd73-12-12d1t03.flac
13a4c8bff67e1a691ee58ec27d1177a6 *gd73-12-12d1t04.flac
e4d00f125c8b96c6ca5e4a77be92d7ef *gd73-12-12d1t05.flac
fd6bfe55ff1ac345f8ad5426beaf370b *gd73-12-12d1t06.flac
682ddd3373e820179d98691df4aee177 *gd73-12-12d1t07.flac
5d862dc24d1c3ce1c2a35892150affa7 *gd73-12-12d1t08.flac
13793f47e469c754d33f2f0aa6294a1b *gd73-12-12d1t09.flac
f842604cc51b1f71db44f79d00eb3000 *gd73-12-12d1t10.flac
c60b045ef9b4e5e4cec20725d1c30321 *gd73-12-12d1t11.flac
7174cee0f1cfaa16cdc99bfb1da3e168 *gd73-12-12d1t12.flac
9504c73ad001c6f754a1f386962254a4 *gd73-12-12d1t13.flac
8afba5cdbeaa99c296932064f0eb349a *gd73-12-12d1t14.flac
907fa3347f1a4f9a61070603ee3da9b5 *gd73-12-12d1t15.flac
72fff106ef3cca164c4682f84601df29 *gd73-12-12d1t16.flac
ea44d34b57d110b72010e43104df6e35 *gd73-12-12d2t01.flac
9db0a7d86b39c76a0226b895f41bb82a *gd73-12-12d2t02.flac
51b1fdf983344f99d83abda3c68093a3 *gd73-12-12d2t03.flac
4234df4363144eed8839c5226503a7ed *gd73-12-12d2t04.flac
96a52e3b5f46b2b45c2d78c8219d0fac *gd73-12-12d2t05.flac
e8a44a4bbb51b3427ae475593dc59b14 *gd73-12-12d2t06.flac
dc9c12243f36e97b8b30e3642a93c6b3 *gd73-12-12d2t07.flac
0f6f3467e500e174b3b085f632724dd0 *gd73-12-12d2t08.flac
408ee9956dc5efd9207e02e67a8e4aaf *gd73-12-12d2t09.flac
72712429d14e62ab716e289f27058f0b *gd73-12-12d2t10.flac
52c327820107ad6a4a2c235a82eb48f9 *gd73-12-12d2t11.flac
1d21c3ebb4b513b2bad79a3bc4e45aa1 *gd73-12-12d2t12.flac
e266dfe5a926193e856c6bc979d920ab *gd73-12-12d3t01.flac
3c0f702377f6274300a342af0a1a60b1 *gd73-12-12d3t02.flac
93eb8d6d164477bfda66e507f214e257 *gd73-12-12d3t03.flac
1910e3fbf4d122e9137dfbf19d2e8222 *gd73-12-12d3t04.flac
28ae8717530a30364a777fa807bcece2 *gd73-12-12d3t05.flac
007ce3e0a31934b3906e96d4bbdefd23 *gd73-12-12d3t06.flac
cff28f3bc65efad605b5398884c0b0e3 *gd73-12-12d3t07.flac
327f32e87fb9d2582fded709b6a311ac *gd73-12-12d3t08.flac
c37d6b6d66c58418ce35251b5e1cb49e *gd73-12-12d4t01.flac
ffp
gd73-12-12d1t01.flac:30660028bd216a17d7971a5e5746d3a2
gd73-12-12d1t02.flac:8c144ecc719859f72e054470a0e7ce8b
gd73-12-12d1t03.flac:0b203041315f8c5c43cee81562b8f902
gd73-12-12d1t04.flac:3f989477c6ce284fa08ce34bee45ec03
gd73-12-12d1t05.flac:c1fcc6de63069196c994559117ccd1ab
gd73-12-12d1t06.flac:f80c5c3ed8302c192b73815d09111508
gd73-12-12d1t07.flac:d71ea40de5d48a9308ef1360119ca410
gd73-12-12d1t08.flac:41b3ba55554c4ab3b7b3a1daa024adf0
gd73-12-12d1t09.flac:95918040867a3603db06e797ab2fb778
gd73-12-12d1t10.flac:125d53757345f42fd122cac7933865c4
gd73-12-12d1t11.flac:0299d66077d03fed052d47c9905b8f9f
gd73-12-12d1t12.flac:33184b34a3ea4d455fa36af88a3c4d69
gd73-12-12d1t13.flac:0b35125c3ed31e13a09e07b0716f2a31
gd73-12-12d1t14.flac:ec21dfc5d1c51fa7ee57ceb3153a458c
gd73-12-12d1t15.flac:d0b275169276e9f2812f9d0bee01da9e
gd73-12-12d1t16.flac:0cd913be063a7d4bd0c53d47121308f9
gd73-12-12d2t01.flac:dc461fe4287f53d2a3ed31f27bf5b867
gd73-12-12d2t02.flac:2dbe41854bea90265d5648306d67c300
gd73-12-12d2t03.flac:16de8775a996c0ed035c53dc512a845b
gd73-12-12d2t04.flac:136a21925e79f9bfb56c07bd9bb2d47b
gd73-12-12d2t05.flac:fd8c02cda50035ef1c1312f9beeb8e6d
gd73-12-12d2t06.flac:1c243b29ba7110200dfcd2ba1810421d
gd73-12-12d2t07.flac:c5b6be8c366a1d01b99c61743ca3e2e6
gd73-12-12d2t08.flac:b97ba95b98c623e4d13a893a00998eb9
gd73-12-12d2t09.flac:36b3622b8cda73311cdff15b0df875d1
gd73-12-12d2t10.flac:d13c3ce8272d1a633ad29938b06f151f
gd73-12-12d2t11.flac:16cf10273e4958870585ede35eefb8b5
gd73-12-12d2t12.flac:09421a75b42422fb7e19782265740a82
gd73-12-12d3t01.flac:df75a5a110592d949d095760caa4786a
gd73-12-12d3t02.flac:32400d254d74347b7a126452eb12327d
gd73-12-12d3t03.flac:9133992b11f1d9d01f24e715e91c1bd9
gd73-12-12d3t04.flac:0f3f2c9d84396119436230e3bd261943
gd73-12-12d3t05.flac:f444caf0a418ab6d7e130961f0263854
gd73-12-12d3t06.flac:82b1f7a66649e711aaf0c5ab2c602e1e
gd73-12-12d3t07.flac:46811c1ddee407a4f1c95f0adeb8e8c6
gd73-12-12d3t08.flac:8179532e54933e0971c7e3c8dfac9de8
gd73-12-12d4t01.flac:e744622057c1f2c89040b61f664601f7

Comments
Add Comment
Other Sources (comments)
souncheck apparently... (0) nearly complete, with... (4) flac16; Remaster of... (3) flac16; Recording... (0)
Date User Comment