Browse Collections Artists Sources   Search Dates

Add Show    List Management    Help


Grateful Dead 09/15/82
Capital Centre, Landover, MD
Comments Add Comment    Source Collectors    Add to Collection    Add to Want List    History
Source # 124586 Other Sources
Entered by Matt Vernon
Checksums ffp , flac-md5
Disc Counts 0 / 0
Media Size Compressed: 965.82 MB (1012735315 bytes)
Uncompressed: 1.4 GB (1503020652 bytes)
Date Circulated
Date Added
05/16-2013
05/17/2013
Source Summary flac16; Recording Info: SBD -> Master Cassette -> Reel -> CD; Transfer Info: CD -> Adobe Audition v3.0 -> Samplitude Professional v11.2.1 -> FLAC; All Transfers and Mastering By Charlie Miller; This is a remaster of source ID 8550 
  Archive
Source Information - Download Text | Download Zip
Grateful Dead - September 15, 1982
Capital Centre - Landover, MD

Recording Info:
SBD -> Master Cassette -> Reel -> CD

Transfer Info:
CD -> Adobe Audition v3.0 -> Samplitude Professional v11.2.1 -> FLAC
(2 Discs Audio / 1 DVD FLAC)

All Transfers and Mastering By Charlie Miller
[email protected]
May 16, 2013

Patch Info:
AKG 414 -> Cassette Master (shnid=118449) supplies:
Playin' In The Band (complete track)
Crazy Fingers (0:00 - 4:28)
Saint Of Circumstance (5:05 - end of show)

Notes:
-- This is a remaster of shnid=8550
-- Move the encore to end of Set 1 to fit the show onto two discs
-- Thanks to Joe B. Jones for his help with the pitch correction

Set 1:
s1t01 - Playin' In The Band ->
s1t02 - Crazy Fingers ->
s1t03 - Playin' Jam ->
s1t04 - Little Red Rooster
s1t05 - Dupree's Diamond Blues
s1t06 - Beat It On Down The Line
s1t07 - It Must Have Been The Roses ->
s1t08 - Playin' Jam ->
s1t09 - Let It Grow ->
s1t10 - Keep Your Day Job

Set 2:
s2t01 - Shakedown Street ->
s2t02 - Playin' Jam ->
s2t03 - Lost Sailor ->
s2t04 - Saint Of Circumstance ->
s2t05 - Drums ->
s2t06 - Space ->
s2t07 - Not Fade Away ->
s2t08 - Stella Blue ->
s2t09 - Around And Around ->
s2t10 - Good Lovin'

Encore:
s2t11 - Touch Of Grey


SHNTOOL OUTPUT:
    length     expanded size    cdr  WAVE problems  fmt   ratio  filename
     8:47.28       93028700 B   ---   --   ---xx   flac  0.6783  gd82-09-15s1t01.flac
     9:28.10      100218764 B   ---   --   ---xx   flac  0.7086  gd82-09-15s1t02.flac
     1:30.59       16014812 B   ---   --   ---xx   flac  0.6731  gd82-09-15s1t03.flac
     8:01.32       84923708 B   ---   --   ---xx   flac  0.7178  gd82-09-15s1t04.flac
     6:08.15       64950524 B   ---   --   ---xx   flac  0.7143  gd82-09-15s1t05.flac
     3:16.19       34619132 B   ---   --   ---xx   flac  0.7092  gd82-09-15s1t06.flac
     5:15.25       55624844 B   ---   --   ---xx   flac  0.6657  gd82-09-15s1t07.flac
     3:09.22       33391388 B   ---   --   ---xx   flac  0.6936  gd82-09-15s1t08.flac
    10:48.44      114410732 B   ---   --   ---xx   flac  0.7323  gd82-09-15s1t09.flac
     4:56.61       52357916 B   ---   --   ---xx   flac  0.7369  gd82-09-15s1t10.flac
    13:18.29      140835452 B   ---   --   ---xx   flac  0.7164  gd82-09-15s2t01.flac
     2:02.54       21647852 B   ---   --   ---xx   flac  0.6331  gd82-09-15s2t02.flac
     7:05.27       75033548 B   ---   --   ---xx   flac  0.6609  gd82-09-15s2t03.flac
     7:40.71       81311036 B   ---   --   ---xx   flac  0.6613  gd82-09-15s2t04.flac
     6:33.39       69416972 B   ---   --   ---xx   flac  0.5717  gd82-09-15s2t05.flac
     2:54.73       30865340 B   ---   --   ---xx   flac  0.5089  gd82-09-15s2t06.flac
    13:29.70      142872284 B   ---   --   ---xx   flac  0.6343  gd82-09-15s2t07.flac
     8:32.63       90465020 B   ---   --   ---xx   flac  0.6074  gd82-09-15s2t08.flac
     3:53.51       41221196 B   ---   --   ---xx   flac  0.6633  gd82-09-15s2t09.flac
     8:02.10       85048364 B   ---   --   ---xx   flac  0.6629  gd82-09-15s2t10.flac
     7:03.62       74763068 B   ---   --   ---xx   flac  0.6790  gd82-09-15s2t11.flac
   142:00.39     1503020652 B                            0.6738  (21 files)



Show Checksums
ffp
gd82-09-15s1t01.flac:f86d484f9c6792eef334a0b142366a05
gd82-09-15s1t02.flac:9bc4b7f59ca21a46d340e375dbee1e18
gd82-09-15s1t03.flac:5a4fe970bc492cf616c04803b00a21b3
gd82-09-15s1t04.flac:1daa166700e1e7f03290d81b373de1d3
gd82-09-15s1t05.flac:873ae5334d1fddb945cad78c7d8d034c
gd82-09-15s1t06.flac:6449c0dea6c0aa9c96389dd8ad5cfb3c
gd82-09-15s1t07.flac:c93f3247a5b45813d997b5df3b717f0e
gd82-09-15s1t08.flac:339373bdc6da0fb2c55c06c8f4b7140c
gd82-09-15s1t09.flac:8ce50d44f8d58a3b5ad1ea50321812e1
gd82-09-15s1t10.flac:f50497121a30d878ac398dea497de8c8
gd82-09-15s2t01.flac:4d985fd7fc2a6ca4934f3fc7939c1c19
gd82-09-15s2t02.flac:1bc4ec02e227a131629b93997f8447f2
gd82-09-15s2t03.flac:ee6ffa409cbafdfe6447858749eef1f8
gd82-09-15s2t04.flac:37a4f5ac041a3c7d916d0e553dacc6e1
gd82-09-15s2t05.flac:d49c115d58d5083bea9c1760f69a8a05
gd82-09-15s2t06.flac:a3fde1d8ba39acd744f2de4b43c5d1db
gd82-09-15s2t07.flac:1cc79329963d4933bd95f824b74758a7
gd82-09-15s2t08.flac:749899c6e1cb62e3fdeca19bdb347461
gd82-09-15s2t09.flac:d5873739e83b775c365b003dc40839db
gd82-09-15s2t10.flac:6f551e6e39b385e5dc1fac480746d17c
gd82-09-15s2t11.flac:c4db9be1c11fe6885f9128c45e8ca1aa
flac-md5
b569d6c15e8f1b351c51845188d5392b *gd82-09-15s1t01.flac
1612efc88bb60393f94b90281da091e6 *gd82-09-15s1t02.flac
32733d81c914819c93c13adc82f35d8b *gd82-09-15s1t03.flac
7f6748f6e23cae3be8fbbffe5b65dccb *gd82-09-15s1t04.flac
71417c34b177756430f269aa622560bf *gd82-09-15s1t05.flac
df0f0a39ede8ac72498eac5fb80899a7 *gd82-09-15s1t06.flac
9d38db3e7cf1eb75b72aa5118fdbed8e *gd82-09-15s1t07.flac
735d0b60b63394eec7aac91f6c0ada25 *gd82-09-15s1t08.flac
04038b31c366a3da8a07e361e937b8c2 *gd82-09-15s1t09.flac
3bd9dfb884ece648ef30fe51c75dac72 *gd82-09-15s1t10.flac
22723daeeadba103cfa1f2a338e259bd *gd82-09-15s2t01.flac
e333df9eec904cf5d18c7a7beb34c3e0 *gd82-09-15s2t02.flac
786ea959a02e590d1c7fa696e221a8b6 *gd82-09-15s2t03.flac
6c3425ed43883088c655e13acebe3da6 *gd82-09-15s2t04.flac
1a240e162a0026d3584f5439028c1b90 *gd82-09-15s2t05.flac
ad427472bbd4497b9948442027bf2085 *gd82-09-15s2t06.flac
4061434b0a48b315f2c06d3b267c75a6 *gd82-09-15s2t07.flac
efaf51d9e1c5a903bf90da9dd8850821 *gd82-09-15s2t08.flac
a9ae7b7de1f752f4db755903e6ffa39d *gd82-09-15s2t09.flac
bd963e6122e9101b552117dc8b699000 *gd82-09-15s2t10.flac
de308b743c66f822dc70ca28a682a3ba *gd82-09-15s2t11.flac

Comments
Add Comment
Other Sources (comments)
combination SBD (Jim Wise)... (3) Master Sondboard Cassette >... (0) flac16; Recording by... (1) flac16; Recording... (0) flac24; Recording... (0) flac24; AUD:... (0) flac16; AUD:... (0)
Date User Comment