Browse Collections Artists Sources   Search Dates

Add Show    List Management    Help


Phish 03/31/93
Roseland Theater, Portland, OR
Comments Add Comment    Source Collectors    Add to Collection    Add to Want List    History
Source # 124591 Other Sources
Entered by Jason Sobel
Checksums FFP , FLAC-md5
Disc Counts 0 / 0
Media Size Compressed: 1.1 GB (1179843133 bytes)
Date Circulated
Date Added
05/16/2013
05/17/2013
Source Summary flac16; TOA K1 > Denon DTR-80P (48khz); Sony PCM-R500 > Tascam SS-R05 > Samplitude Professional v11.2.1 -> FLAC; Taped by Jeff Betts; Transferred by Charlie Miller 
Source Information - Download Text | Download Zip
Phish - March 31, 1993
Roseland Theatre - Portland, OR

Recording Info:
(Front Row Balcony/30 Foot Split) TOA K1 -> Dat (Denon DTR-80P/48k)

Transfer Info:
Dat (Sony R500) -> Tascam SS-R05 -> Samplitude Professional v11.2.1 -> FLAC
(3 Discs Audio / 1 DVD FLAC)

All Transfers and Mastering By Charlie Miller
[email protected]
May 16, 2013

Notes:
-- Set 2 is seamless
-- Recorded By Jeff Betts
-- My Dat didn't have any of the flaws that the other copies had

Set 1:
d1t01 - Runaway Jim
d1t02 - Foam
d1t03 - Sparkle
d1t04 - Split Open And Melt
d1t05 - Mound
d1t06 - Punch You In The Eye
d1t07 - Sample In A Jar
d1t08 - Reba
d1t09 - I Didn't Know
d1t10 - David Bowie

Set 2:
d2t01 - Lengthwise ->
d2t02 - Maze
d2t03 - Bouncing Around The Room
d2t04 - Uncle Pen
d2t05 - Harry Hood
d2t06 - Big Ball Jam
d2t07 - It's Ice
d2t08 - You Enjoy Myself
d3t01 - Harpua
d3t02 - Chalkdust Torture

Encore:
d3t03 - Trey's Bonnie Raitt Rap
d3t04 - AC/DC Bag
d3t05 - Sweet Adeline


SHNTOOL OUTPUT:
    length     expanded size    cdr  WAVE problems  fmt   ratio  filename
     7:26.29       78742652 B   ---   --   ---xx   flac  0.6233  phish1993-03-31d1t01.flac
     8:35.33       90923660 B   ---   --   ---xx   flac  0.5959  phish1993-03-31d1t02.flac
     3:57.68       41966780 B   ---   --   ---xx   flac  0.6271  phish1993-03-31d1t03.flac
     8:29.53       89912300 B   ---   --   ---xx   flac  0.6489  phish1993-03-31d1t04.flac
     6:01.60       63821564 B   ---   --   ---xx   flac  0.6433  phish1993-03-31d1t05.flac
     7:14.59       76696412 B   ---   --   ---xx   flac  0.6431  phish1993-03-31d1t06.flac
     5:06.45       54084284 B   ---   --   ---xx   flac  0.6490  phish1993-03-31d1t07.flac
    12:43.73      134764940 B   ---   --   ---xx   flac  0.6071  phish1993-03-31d1t08.flac
     3:42.24       39217292 B   ---   --   ---xx   flac  0.5845  phish1993-03-31d1t09.flac
    14:28.06      153129356 B   ---   --   ---xx   flac  0.6371  phish1993-03-31d1t10.flac
     2:01.20       21391484 B   ---   --   ---xx   flac  0.4460  phish1993-03-31d2t01.flac
     9:24.18       99531980 B   ---   --   ---xx   flac  0.6497  phish1993-03-31d2t02.flac
     3:44.69       39675932 B   ---   --   ---xx   flac  0.6230  phish1993-03-31d2t03.flac
     4:09.62       44069468 B   ---   --   ---xx   flac  0.5979  phish1993-03-31d2t04.flac
    14:05.56      149189756 B   ---   --   ---xx   flac  0.6127  phish1993-03-31d2t05.flac
     3:32.71       37563836 B   ---   --   ---xx   flac  0.6199  phish1993-03-31d2t06.flac
     8:41.07       91920908 B   ---   --   ---xx   flac  0.6062  phish1993-03-31d2t07.flac
    23:15.41      246174476 B   ---   --   ---xx   flac  0.5852  phish1993-03-31d2t08.flac
    17:22.38      183898220 B   ---   --   ---xx   flac  0.5637  phish1993-03-31d3t01.flac
     5:54.38       62535020 B   ---   --   ---xx   flac  0.6696  phish1993-03-31d3t02.flac
     1:58.70       20979884 B   ---   --   ---xx   flac  0.5037  phish1993-03-31d3t03.flac
     8:55.64       94524572 B   ---   --   ---xx   flac  0.5917  phish1993-03-31d3t04.flac
     1:57.31       20711756 B   ---   --   ---xx   flac  0.5959  phish1993-03-31d3t05.flac
   182:51.60     1935426532 B                            0.6096  (23 files)

Show Checksums
FFP
phish1993-03-31d1t01.flac:8b7408a440df256838b2c06feac541e2
phish1993-03-31d1t02.flac:b37772c7b83d384eafae8bb7666c41ec
phish1993-03-31d1t03.flac:ed8ce7f99a1813fc537763b1bfabe126
phish1993-03-31d1t04.flac:10fa549cd2f20fc7c5b0ec92cc7dda13
phish1993-03-31d1t05.flac:b928f9211db0fddb04c4f9c9d55d28e7
phish1993-03-31d1t06.flac:d65db975020cf5d20fddb077848ea152
phish1993-03-31d1t07.flac:f437f2f6d023b437a0de7be37d310dee
phish1993-03-31d1t08.flac:b466822bb65de67625808b8108fa3ed2
phish1993-03-31d1t09.flac:c72c6fbab75b847697f2d6b77759574f
phish1993-03-31d1t10.flac:7b0ee753ac68a67f714e946abea8427f
phish1993-03-31d2t01.flac:736b90eaec06387df877cf1049bdad18
phish1993-03-31d2t02.flac:bbcce4bf4d1bfed6d1e9f1c1071a1159
phish1993-03-31d2t03.flac:474130c9690fc7bb85e6342a3bf36ca2
phish1993-03-31d2t04.flac:de41cb6fe45ff55e3a4df8fc101b5393
phish1993-03-31d2t05.flac:c5e1dd9bf37b2b3d0436aedd8975a6b2
phish1993-03-31d2t06.flac:e263b700c6b681c47a1f884e9a135778
phish1993-03-31d2t07.flac:691f53371cdee6f2a927c6ae03a5239b
phish1993-03-31d2t08.flac:63fd152dd2cfdf9fa844c864511ee063
phish1993-03-31d3t01.flac:12a417f01469fcb9980e2cef6b57ac56
phish1993-03-31d3t02.flac:95bff8908db9a1ab050df305aa50db17
phish1993-03-31d3t03.flac:b1b855c683f33147a8ae32e815c9011d
phish1993-03-31d3t04.flac:0482d4758cc5ddf7471721f31121c6ee
phish1993-03-31d3t05.flac:3c6f3a381a862e4164ba928e5c4594dd
FLAC-md5
32d51230dfcc43ca6260857f4a83b222 *phish1993-03-31d1t01.flac
fc5b8e1d1c639113e417903b25719412 *phish1993-03-31d1t02.flac
4772adeeec5fd959f876ab7a9591f1a2 *phish1993-03-31d1t03.flac
b0037c052656b37f20c3d6f9a29629e0 *phish1993-03-31d1t04.flac
db6ba29402d88981fd55031a53e53fb4 *phish1993-03-31d1t05.flac
8243651861945c4826987be8905da9fc *phish1993-03-31d1t06.flac
aadae5060c3744d0558832280ea1540b *phish1993-03-31d1t07.flac
c7284c6279ba64f6592d593ad37daf15 *phish1993-03-31d1t08.flac
f93b40796cb2404923ba979271941e7f *phish1993-03-31d1t09.flac
f7712c87cc20f7b724a405dc85d67e78 *phish1993-03-31d1t10.flac
718993b7e5bd52c7890ff5c7ad0f5e4e *phish1993-03-31d2t01.flac
09cb98099108863cbd0cb52ab9b2cd66 *phish1993-03-31d2t02.flac
c3de2b1d223335a5dc4bad8174cb391f *phish1993-03-31d2t03.flac
daff569250f5f36a463f4ce70d34ab9b *phish1993-03-31d2t04.flac
2c7a14fc13d9ae027d9d609aac733f45 *phish1993-03-31d2t05.flac
52ba5cb10d3995e5b1b555ae3195134f *phish1993-03-31d2t06.flac
91a02e26eb2647967ed3996c33065ec2 *phish1993-03-31d2t07.flac
bcc8f4113f6315be9bd4ecf97016ba7d *phish1993-03-31d2t08.flac
f70ee7165fe38e96c3f136df8cb8c8da *phish1993-03-31d3t01.flac
1e4780d546b01b30bf4c9713f9f5e610 *phish1993-03-31d3t02.flac
f19fd0c216db8397fcceb36874240f8d *phish1993-03-31d3t03.flac
41c47e5fe5a97a9bdf98824b10cffe2d *phish1993-03-31d3t04.flac
168490e239a14609721fbc6397aadef6 *phish1993-03-31d3t05.flac

Comments
Add Comment
Other Sources (comments)
TOA K1's Balcony > DTR-80P... (6) FOB Neumann km140 > Sonosax... (0)
Date User Comment