Browse Collections Artists Sources   Search Dates

Add Show    List Management    Help


Grateful Dead 11/30/81
Hara Arena, Dayton, OH
Comments Add Comment    Source Collectors    Add to Collection    Add to Want List    History
Source # 124605 Other Sources
Entered by Matt Vernon
Checksums flac-md5 , ffp
Disc Counts 0 / 0
Media Size Compressed: 510.3 MB (535085056 bytes)
Uncompressed: 822 MB (861926120 bytes)
Date Circulated
Date Added
05/20/2013
05/20/2013
Source Summary flac16; Source: AUD 2nd-Gen (MAC > C > C), unknown equipment. Transfer: XLII > Nakamichi CR5A > Edirol FA66 > Wavelab 2448 > R8Brain > CD-Wave > TLH > FLAC 1644 & tagged. May 2013 
  Archive
Source Information - Download Text | Download Zip
GRATEFUL DEAD
Hara Arena
Dayton OH
11-30-1981
Second Set

s2t01 Women Are Smarter
s2t02 It Must Have Been the Roses
s2t03 Estimated Prophet >
s2t04 Eyes of the World >
s2t05 Drums >
s2t06 Space >
s2t07 The Other One >
s2t08 Wharf Rat >
s2t09 Sugar Magnolia
s2t10 Encore: Might as Well

Source: AUD 2nd-Gen (MAC > C > C), unknown equipment.

Transfer: XLII > Nakamichi CR5A > Edirol FA66 > Wavelab 2448 >
R8Brain > CD-Wave > TLH > FLAC 1644 & tagged. May 2013

Note: ID-9591 patches cover tape flip and some tape damage;
Estimated 11:00 > Eyes 0:10 (12 sec), Drums 6:00 > 6:23, and
Wharf Rat 9:57 > Sugar Magnolia 0:11 (14 sec). Thanks to
Trishka & poorlilwhiteboy for the 30-year old cassette!

    length     expanded size    cdr  WAVE problems  fmt   ratio  filename
     5:52.09       62114012 B   ---   --   ---xx   flac  0.6336  gd1981-11-30s2t01.flac
     6:14.13       66004220 B   ---   --   ---xx   flac  0.6110  gd1981-11-30s2t02.flac
    11:05.38      117395420 B   ---   --   ---xx   flac  0.6176  gd1981-11-30s2t03.flac
    13:57.65      147799724 B   ---   --   ---xx   flac  0.6200  gd1981-11-30s2t04.flac
     6:23.31       67634156 B   ---   --   ---xx   flac  0.6019  gd1981-11-30s2t05.flac
     5:34.57       59051708 B   ---   --   ---xx   flac  0.5741  gd1981-11-30s2t06.flac
     8:36.74       91196492 B   ---   --   ---xx   flac  0.6250  gd1981-11-30s2t07.flac
    10:02.36      106277516 B   ---   --   ---xx   flac  0.6316  gd1981-11-30s2t08.flac
     8:43.20       92304284 B   ---   --   ---xx   flac  0.6422  gd1981-11-30s2t09.flac
     4:55.47       52148588 B   ---   --   ---xx   flac  0.6370  gd1981-11-30s2t10.flac
    81:26.15      861926120 B                            0.6208  (10 files)

No errors occured.



Show Checksums
flac-md5
91fe0508f2fc541d492d203a96b954b4 *gd1981-11-30s2t01.flac
0dd51db07b1a584305f1ed9752314a00 *gd1981-11-30s2t02.flac
6532c7c6cfed70ae7a31d7d94fe2fa68 *gd1981-11-30s2t03.flac
0e4ba61d470dc559f26f043a9ea1c346 *gd1981-11-30s2t04.flac
c42fcd7772f3e01c5815a09f572ffbc2 *gd1981-11-30s2t05.flac
774338370997c8a50fe6c5f27ddda877 *gd1981-11-30s2t06.flac
a213fec529fd2455faf9a61dfba74a58 *gd1981-11-30s2t07.flac
58e9befa79e93553df3d41cb2c911d60 *gd1981-11-30s2t08.flac
545fdfe19ea78fcd8730d25ce04358d3 *gd1981-11-30s2t09.flac
e2db5067bba9cb22b2380eaa0ece629e *gd1981-11-30s2t10.flac
ffp
gd1981-11-30s2t01.flac:297ca0a826e955c4a1510b3e5e990e07
gd1981-11-30s2t02.flac:18ecd55bae15cdb9dc5f6f59aa2290b7
gd1981-11-30s2t03.flac:1ddaf75049bbb5a196b197cef4432825
gd1981-11-30s2t04.flac:a7cfe2c4c77485821b62725bf77dd2ec
gd1981-11-30s2t05.flac:e8e5b81ce506072b36d01d3d66068668
gd1981-11-30s2t06.flac:e8c915cf17026a4950529fde8cc98a05
gd1981-11-30s2t07.flac:c48cc0b5026c1b7017c3ff578d3ade8a
gd1981-11-30s2t08.flac:afc8805722c4fcf8a6be7a3a6b7df005
gd1981-11-30s2t09.flac:2f4015918bf75ac4a5cf2cb88534134f
gd1981-11-30s2t10.flac:6b50b9cae4d47dc0d76309ad64d2d8aa

Comments
Add Comment
Other Sources (comments)
Nak 300?s>Sony... (1) flac16;Recording... (0) flac16; Recording... (1)
Date User Comment