Browse Collections Artists Sources   Search Dates

Add Show    List Management    Help


Grateful Dead 10/14/83
Hartford Civic Center, Hartford, CT
Comments Add Comment    Source Collectors    Add to Collection    Add to Want List    History
Source # 124718 Other Sources
Entered by Matt Vernon
Checksums flac-md5 , ffp
Disc Counts 0 / 0
Media Size Compressed: 1.14 GB (1228976128 bytes)
Uncompressed: 1.85 GB (1985773400 bytes)
Date Circulated
Date Added
06/01/2013
06/01/2013
Source Summary flac16; AUD: Nakamichi CM300 w/CP1 cardioid capsules > Sony TC-D5M > TDK MA90's, front row of center riser, straight back, Section 325 (aka 225), Row A, taped by Tim Friend & Joe Morrone. Transfer: MAC > Nakamichi CR5A > Edirol FA-66 > Wavelab 2448 > R8Brain > CD-Wave > TLH > FLAC 1644 tagged. Transfer by Andrew F. 06/2013 
  Archive
Source Information - Download Text | Download Zip
GRATEFUL DEAD
Civic Center
Hartford CT
10-14-1983

s1t01 crowd & tuning
s1t02 Alabama Getaway >
s1t03 Greatest Story Ever Told
s1t04 They Love Eachother
s1t05 Mama Tried >
s1t06 Big River
s1t07 Althea >
s1t08 C.C. Rider
s1t09 Tennessee Jed
s1t10 Hell in a Bucket >
s1t11 Keep Your Day Job

s2t01 crowd & tuning
s2t02 Scarlet Begonias >
s2t03 Fire on the Mountain
s2t04 Estimated Prophet >
s2t05 Eyes of the World >
s2t06 Drums >
s2t07 Space > Spanish Jam >
s2t08 The Other One >
s2t09 Stella Blue >
s2t10 Sugar Magnolia
s2t11 Encore: U.S. Blues

AUD: Nakamichi CM300 w/CP1 cardioid capsules > Sony TC-D5M > TDK MA90's,
front row of center riser, straight back, Section 325 (aka 225), Row A,
taped by Tim Friend & Joe Morrone.

Transfer: MAC > Nakamichi CR5A > Edirol FA-66 > Wavelab 2448 > R8Brain >
CD-Wave > TLH > FLAC 1644 tagged. Transfer by Andrew F. 06/2013

Notes: ID-102056 patches, C.C.Rider 4:08 > 4:15, and Eyes 0:25 > 0:33.
ID-103233 patch, Drums 0:52 > Space 0:23 (5:14).

    length     expanded size    cdr  WAVE problems  fmt   ratio  filename
     1:56.62       20608268 B   ---   --   ---xx   flac  0.5515  gd1983-10-14s1t01.flac
     6:04.38       64299020 B   ---   --   ---xx   flac  0.6198  gd1983-10-14s1t02.flac
     4:51.55       51461804 B   ---   --   ---xx   flac  0.6229  gd1983-10-14s1t03.flac
    11:21.71      120295436 B   ---   --   ---xx   flac  0.6083  gd1983-10-14s1t04.flac
     2:51.54       30291452 B   ---   --   ---xx   flac  0.6304  gd1983-10-14s1t05.flac
     6:47.36       71879516 B   ---   --   ---xx   flac  0.6293  gd1983-10-14s1t06.flac
     9:04.43       96062780 B   ---   --   ---xx   flac  0.6281  gd1983-10-14s1t07.flac
     9:13.08       97568060 B   ---   --   ---xx   flac  0.6276  gd1983-10-14s1t08.flac
     9:53.73      104776940 B   ---   --   ---xx   flac  0.6160  gd1983-10-14s1t09.flac
     5:58.04       63160652 B   ---   --   ---xx   flac  0.6446  gd1983-10-14s1t10.flac
     6:08.07       64931708 B   ---   --   ---xx   flac  0.6441  gd1983-10-14s1t11.flac
     0:46.72        8283788 B   ---   --   ---xx   flac  0.5628  gd1983-10-14s2t01.flac
    14:14.19      150690332 B   ---   --   ---xx   flac  0.6307  gd1983-10-14s2t02.flac
    17:21.33      183710060 B   ---   --   ---xx   flac  0.6244  gd1983-10-14s2t03.flac
    12:54.41      136630076 B   ---   --   ---xx   flac  0.6210  gd1983-10-14s2t04.flac
    18:21.18      194258780 B   ---   --   ---xx   flac  0.6403  gd1983-10-14s2t05.flac
     5:43.22       60556988 B   ---   --   ---xx   flac  0.5684  gd1983-10-14s2t06.flac
    10:46.65      114107324 B   ---   --   ---xx   flac  0.5477  gd1983-10-14s2t07.flac
     8:36.69       91184732 B   ---   --   ---xx   flac  0.6176  gd1983-10-14s2t08.flac
     9:18.50       98548844 B   ---   --   ---xx   flac  0.5964  gd1983-10-14s2t09.flac
     9:28.19      100239932 B   ---   --   ---xx   flac  0.6439  gd1983-10-14s2t10.flac
     5:52.57       62226908 B   ---   --   ---xx   flac  0.6297  gd1983-10-14s2t11.flac
   187:37.16     1985773400 B                            0.6188  (22 files)

No errors occured.



Show Checksums
flac-md5
8b138f615f6367dfa04691a9d6f2504a *gd1983-10-14s1t01.flac
cea720017982e7baf890a2f05f678c81 *gd1983-10-14s1t02.flac
4a63f79aaa0d68ffa7a66eb71f3df9a6 *gd1983-10-14s1t03.flac
8186b95923f6576f02e60679e78dd807 *gd1983-10-14s1t04.flac
f642fd338f0874f822692d099ce7fca7 *gd1983-10-14s1t05.flac
ecefee73fa4d3ad1eb555f95f1530866 *gd1983-10-14s1t06.flac
58bd321c1e22e9634ac6f2b6f4251621 *gd1983-10-14s1t07.flac
226f0b9e0c09b2d484ca16759be70337 *gd1983-10-14s1t08.flac
71292935b90ac5608f8f8d77f320d3d8 *gd1983-10-14s1t09.flac
2228dea1b659ce0594154c07017f46ee *gd1983-10-14s1t10.flac
f2a1f9894264710d611cbd84cbfb004a *gd1983-10-14s1t11.flac
15183b6cec8145f95f1ce13924d3a25b *gd1983-10-14s2t01.flac
79452357438bc4ce4b8e6cbfc57838ba *gd1983-10-14s2t02.flac
acd9781759c638b9ff69f2f5e802fd6d *gd1983-10-14s2t03.flac
9a166f5254509df169828832b0094004 *gd1983-10-14s2t04.flac
8ab25d52ed261911570fa37f04864b7f *gd1983-10-14s2t05.flac
db6f0f9e6ae47f09d118dcc410a21952 *gd1983-10-14s2t06.flac
90179b3425657097e34b18785ad703b0 *gd1983-10-14s2t07.flac
be1ffe924b46d29c132aa0e6c4d92add *gd1983-10-14s2t08.flac
2ca16f96735c1273591e9d7609f14ce8 *gd1983-10-14s2t09.flac
8f470f50ca9032227a02a87d84da1db5 *gd1983-10-14s2t10.flac
f0d54d1b05c4ed81feca288da7b6c7d9 *gd1983-10-14s2t11.flac
ffp
gd1983-10-14s1t01.flac:a7b5159c15a1376d4181e2d1196bfa8c
gd1983-10-14s1t02.flac:e114fdddfac7b91ce7487d003a250bbd
gd1983-10-14s1t03.flac:628b76d2449ad9220b0e2ffc26d6395f
gd1983-10-14s1t04.flac:950b2031909d9ec4f2af5b9f9bc7fb03
gd1983-10-14s1t05.flac:b80acb2432fad69d3c0ddc582cfc73fc
gd1983-10-14s1t06.flac:4c9a2c6c0723fcb2ae7d40c7040d884e
gd1983-10-14s1t07.flac:4170fd0e8c71f85d5899b2cc39d78d68
gd1983-10-14s1t08.flac:30b6cf56365d556a8c438a00efddbf29
gd1983-10-14s1t09.flac:5198ff1ac682eb0035f2555e3ff05ef9
gd1983-10-14s1t10.flac:1ab078ae83231878586ef3e8836a45dc
gd1983-10-14s1t11.flac:da7be0deb4f4ba0b28b8a2e354184c44
gd1983-10-14s2t01.flac:e5abf08b161b59eff22ba648a21758df
gd1983-10-14s2t02.flac:2a10e95eb150e1891b87b78a16623045
gd1983-10-14s2t03.flac:b00ae1bcfd36a98610b5c15fac9504ab
gd1983-10-14s2t04.flac:cf54dbd16977496caa45e83c6d2a04a5
gd1983-10-14s2t05.flac:7d72eb97e77610b8ee2bbf1f6e53a5b1
gd1983-10-14s2t06.flac:5019cf278a70cd2c13900ff99707d6cc
gd1983-10-14s2t07.flac:da78346b56f657840d24f8c008a9efda
gd1983-10-14s2t08.flac:459af9584e8bc19654256cec4b7f3ea7
gd1983-10-14s2t09.flac:1598b78174d0766917654548eb9216c0
gd1983-10-14s2t10.flac:081ae019888c81c70c79045135d7a17a
gd1983-10-14s2t11.flac:e9b8712b48b96abebe8f35680b5125c4

Comments
Add Comment
Other Sources (comments)
3 ATM 11 (tapers section) >... (0) Ficca FOB Sony TCD5M with 2... (1) 2 Nak 700's>Sony... (4) flac16; Lineage:... (0) flac16; Nakamichi... (0) flac16; Recording... (0) flac24;nak 300/cp4... (1) flac24; Nakamichi... (0) flac24; Updated... (0) flac24; Master... (0) flac16; Master... (0) flac24; Partial Set... (0) flac16; Partial Set... (0)
Date User Comment