Browse Collections Artists Sources   Search Dates

Add Show    List Management    Help


Grateful Dead 03/26/87
Hartford Civic Center, Hartford, CT
Comments Add Comment    Source Collectors    Add to Collection    Add to Want List    History
Source # 124744 Other Sources
Entered by Matt Vernon
Checksums flac-md5 , ffp
Disc Counts 0 / 0
Media Size Compressed: 1 GB (1070587904 bytes)
Uncompressed: 1.32 GB (1414461224 bytes)
Date Circulated
Date Added
06/04/2013
06/04/2013
Source Summary flac24; Set 2 Source: SBD (Healy Matrix) > Metal cassette 1st Gen > Maxell MXS-90 2nd Gen cassette. With kind thanks to Seaweed1010. Transfer: MXS > Nakamichi CR-5A > Edirol FA-66 > Wavelab 2448 > CD-Wave (24bit) > TLH > FLAC 2448 tagged. June 2013, Andrew F. 
  Archive
Source Information - Download Text | Download Zip
GRATEFUL DEAD
Civic Center
Hartford CT
03-26-1987
Second Set

24bit/48kHz file-set

s2t01 China Cat Sunflower >
s2t02 I Know You Rider
s2t03 Looks Like Rain
s2t04 He's Gone >
s2t05 Drums >
s2t06 Space >
s2t07 I Need a Miracle >
s2t08 Black Peter >
s2t09 Around & Around >
s2t10 Good Lovin'
s2t11 crowd
s2t12 Encore: The Mighty Quinn
s2t13 crowd

Source: SBD (Healy Matrix) > Metal cassette 1st Gen > Maxell
MXS-90 2nd Gen cassette. With kind thanks to Seaweed1010.

Transfer: MXS > Nakamichi CR-5A > Edirol FA-66 > Wavelab 2448 >
CD-Wave (24bit) > TLH > FLAC 2448 tagged. June 2013, Andrew F.

Note: Same root source as ID-10923, both have the same problem
with some over-driven bass. ID-81450 patch, Space 3:23 > 3:29.

    length     expanded size    cdr  WAVE problems  fmt   ratio  filename
     5:58.067     103123244 B   cxx   --   ---xx   flac  0.7696  gd1987-03-26s2t01.flac
     5:25.120      93634604 B   cxx   --   ---xx   flac  0.7782  gd1987-03-26s2t02.flac
     8:26.053     145743404 B   cxx   --   ---xx   flac  0.7654  gd1987-03-26s2t03.flac
    13:24.533     231705644 B   cxx   --   ---xx   flac  0.7615  gd1987-03-26s2t04.flac
     8:26.107     145758764 B   cxx   --   ---xx   flac  0.7557  gd1987-03-26s2t05.flac
     7:58.187     137717804 B   cxx   --   ---xx   flac  0.7293  gd1987-03-26s2t06.flac
     4:19.880      74845484 B   cxx   --   ---xx   flac  0.7679  gd1987-03-26s2t07.flac
     9:23.640     162328364 B   cxx   --   ---xx   flac  0.7454  gd1987-03-26s2t08.flac
     3:48.480      65802284 B   cxx   --   ---xx   flac  0.7620  gd1987-03-26s2t09.flac
     7:49.653     135260204 B   cxx   --   ---xx   flac  0.7621  gd1987-03-26s2t10.flac
     1:24.360      24295724 B   cxx   --   ---xx   flac  0.7295  gd1987-03-26s2t11.flac
     4:33.520      78773804 B   cxx   --   ---xx   flac  0.7528  gd1987-03-26s2t12.flac
     0:53.722      15471896 B   cxx   --   ---xx   flac  0.7123  gd1987-03-26s2t13.flac
    81:51.322    1414461224 B                            0.7569  (13 files)

No errors occured.



Show Checksums
flac-md5
588e006dd1b0b20e3ba4bb25b9b8a885 *gd1987-03-26s2t01.flac
0a5806bc508d61c9b71733b4d54cc523 *gd1987-03-26s2t02.flac
e7fc807a89fee727e9b42bb3c2047ec4 *gd1987-03-26s2t03.flac
b6c9f9248dc3fd05d4b9222baf3c5211 *gd1987-03-26s2t04.flac
edd5abf17487b6168008162b7c3384cb *gd1987-03-26s2t05.flac
e1960566ed943fd327230f2748405f2b *gd1987-03-26s2t06.flac
bf098e6aba14623c9e1cdc2efba28998 *gd1987-03-26s2t07.flac
03e91e1368ea7e15337b25eeed051760 *gd1987-03-26s2t08.flac
c670aa65d83b4952186163fb7ffe4eec *gd1987-03-26s2t09.flac
9aa726ce5595d79109cffd5697731ec8 *gd1987-03-26s2t10.flac
fb60b92c48e5398701429f4a70d35e7d *gd1987-03-26s2t11.flac
efe7de0bd11181a80c09ca0939e94230 *gd1987-03-26s2t12.flac
1151ca4b582344f9bba653f617dd6276 *gd1987-03-26s2t13.flac
ffp
gd1987-03-26s2t01.flac:745a8ba4ca2a6546d602858cc2fb068e
gd1987-03-26s2t02.flac:df491d70cc44287d24e0050716a1ec75
gd1987-03-26s2t03.flac:acc11bcaa944395f3a1d9c14f02d11ed
gd1987-03-26s2t04.flac:1d8fbf48b627e231c3468e9a0c743f0d
gd1987-03-26s2t05.flac:00fa31d559450a567f10b9813fed1b03
gd1987-03-26s2t06.flac:1acf26a2363dbc2325b152f4e02b8d3a
gd1987-03-26s2t07.flac:739276143b17f0ff32ab26eae9ea90cf
gd1987-03-26s2t08.flac:6c5f475d778bf96cfe4d80f981a1e69f
gd1987-03-26s2t09.flac:2c1df9bb9fa2ace4aa4b6df3cba73edc
gd1987-03-26s2t10.flac:31facce3cfe1a44ad55bede160c835a9
gd1987-03-26s2t11.flac:8481d2730542d877a52799ae314fd91b
gd1987-03-26s2t12.flac:dddc5342072eda5bb0d3368cc010ee52
gd1987-03-26s2t13.flac:4db7ae5dd65f4c8434e7aafe3864671f

Comments
Add Comment
Other Sources (comments)
Set I info Source: SBD... (2) flac16; Nakamichi... (0) flac16; taper : Joe... (0) flac16; Source: (2x)... (0) flac16; Nakamichi... (0) flac24; 2 nakamichi... (0) flac24; Recording... (0) flac16; Recording... (0) flac16; Robert... (0)
Date User Comment