Browse Collections Artists Sources   Search Dates

Add Show    List Management    Help


Phish 10/14/94
McAllister Auditorium, New Orleans, LA
Comments Add Comment    Source Collectors    Add to Collection    Add to Want List    History
Source # 12479 Other Sources
Entered by Jason Sobel
Checksums d3 , d2 , d1 , all_ffp
Disc Counts 2 / 3
Media Size
Date Circulated
Date Added
10/14/02
10/14/2002
Source Summary AKG 460/ck61; Tascam DA-20 > Coax > Waveterminal 2496 > Cool Edit Pro 2000 > CDWav > mkwACT; Transferred by Alec Swensen 
Source Information - Download Text | Download Zip

*******************************************************
NEW TEXT FILE
*******************************************************

Phish
October 14, 1994
McAllister Auditorium, Tulane University - New Orleans, LA

Source: AKG 460B/CK61
Conversion: Tascam DA-20 > Coax > Waveterminal 2496 > Cool Edit Pro 2000 >
CD Wav > MKW Act > Shn

Recorded by: unknown
Converted by: Alec Swensen

Updates:
This show is the source listed in db.etree.org below only FLAC.
I did fix the SBE's (see below).
http://db.etree.org/shninfo_detail.php?shnid=12479
SHN>MKWACT>WAV>FLAC V1.71 (with ID Tags) 12/2005

Disc One:
01 Buried Alive (2:32)
02 Sample in a Jar (4:54)
03 Divided Sky (14:52)
04 The Horse-> (1:18)
05 Silent in the Morning (5:15)
06 Punch You In the Eye (7:10)
07 Bathtub Gin (12:25)
08 Sweet Adeline* (2:10)
09 Rift (6:03)
10 Colonel Forbin's Ascent (11:56)
11 Famous Mocking Bird (6:19)

Disc Two:
01 Julius (7:21)
02 The Curtain (6:56)
03 Tweezer (13:50)
04 Lifeboy (8:17)
05 Guyute (10:52)
06 Chalk Dust Torture (9:13)
07 Nellie Cane* (3:20)
08 Beaumont Rag#* (3:04)
09 Foreplay* (3:06)
10 Long Time* (4:02)

Disc Three:
01 The Squirming Coil (11:09)
02 Tweezer Reprise (3:31)
03 Yar Mar** (6:22)
04 Cavern** (4:45)


*Acoustic.
#First time played.
**With Michael Ray on trumpet and shaker and Carl Gearhard on trumpet.

NOTE:
Digi Noise in Bathtub Gin at 9:10 and 9:24 (on the orginal DAT)
DAT skip in Divided Sky at 6:40
Edited a drop out before the encore (on the orginal DAT)

Orgional Fileset Checksum:
ed96626faeb043bdb56eb214e2ff1c68 *ph1994-10-14d1t01.wav
cd8c5041739540e5b786722c786dc07c *ph1994-10-14d1t02.wav
435de67eb764b868d8fce2ab49b75a5a *ph1994-10-14d1t03.wav
debc21ea31fda1c955b9c7f07ddab6f3 *ph1994-10-14d1t04.wav
983418e4eb7ec94fe68d9b6d9d4b615e *ph1994-10-14d1t05.wav
85a143c3deff3b4716d61d7ab1eaa5bf *ph1994-10-14d1t06.wav
e44018ef3859335861ebef8709e1e5ba *ph1994-10-14d1t07.wav
604db61730181ca5ca586d3077fe3b15 *ph1994-10-14d1t08.wav
76f58fc599b3d789cddf422a068c242a *ph1994-10-14d1t09.wav
05e0c24c67f0d3b11f31275129a9582f *ph1994-10-14d1t10.wav
712313a1a87c4afc682b685513e4ecdd *ph1994-10-14d1t11.wav
5f0764e9dc9f1478ad29b8145a4ba74d *ph1994-10-14d2t01.wav
d8520bb3cda3a345f82f4a15263aa65d *ph1994-10-14d2t02.wav
3e6f3bc82603706ff6d98c4800e53816 *ph1994-10-14d2t03.wav
cd64831574170e2e602b09e093288c18 *ph1994-10-14d2t04.wav
5d206406be5b2d1893ede175a8742b44 *ph1994-10-14d2t05.wav
3368cfa79f5a65b50166d9ed9ff71da1 *ph1994-10-14d2t06.wav
0e26a86944de1069daba041b9fb1beec *ph1994-10-14d2t07.wav
1510f75e48af22ae0dce5b6fd78a3027 *ph1994-10-14d2t08.wav
5a249760f858a419735d633194aaf01f *ph1994-10-14d2t09.wav
c6cf9520e37f3ad3550d906a100ddb57 *ph1994-10-14d2t10.wav
aa2143800df12bf332ec6c7e92c7f176 *ph1994-10-14d3t01.wav
b14fe4f2fd00ec0c42c22ecff20057fb *ph1994-10-14d3t02.wav
35b6564e6ab0597f198b9ceed5003f3e *ph1994-10-14d3t03.wav
a3a6bff9b76cdf29c0f905ff5b891c68 *ph1994-10-14d3t04.wav

Origional Shntool Output:
length expanded size cdr WAVE problems filename
2:32.33 26890460 --- -- ----- ph1994-10-14d1t01.wav
4:54.53 51986300 --- -- ----- ph1994-10-14d1t02.wav
14:50.00 156996044 --- -- ----- ph1994-10-14d1t03.wav
1:18.08 13778060 --- -- ----- ph1994-10-14d1t04.wav
5:15.17 55606028 --- -- ----- ph1994-10-14d1t05.wav
7:10.69 76014332 --- -- ----- ph1994-10-14d1t06.wav
12:25.63 131566220 --- -- ----- ph1994-10-14d1t07.wav
2:10.03 22939100 --- -- ----- ph1994-10-14d1t08.wav
6:03.29 64101452 --- -- ----- ph1994-10-14d1t09.wav
11:56.41 126398876 --- -- ----- ph1994-10-14d1t10.wav
6:19.62 67001468 --- -- ----- ph1994-10-14d1t11.wav
7:21.09 77812688 -b- -- ----- ph1994-10-14d2t01.wav
6:56.15 73417724 --- -- ----- ph1994-10-14d2t02.wav
13:50.01 146414280 -b- -- ----- ph1994-10-14d2t03.wav
8:17.28 87736700 --- -- ----- ph1994-10-14d2t04.wav
10:52.73 115184540 --- -- ----- ph1994-10-14d2t05.wav
9:13.53 97673900 --- -- ----- ph1994-10-14d2t06.wav
3:20.41 35376476 --- -- ----- ph1994-10-14d2t07.wav
3:04.73 32629340 --- -- ----- ph1994-10-14d2t08.wav
3:06.13 32841020 --- -- ----- ph1994-10-14d2t09.wav
4:02.14 42721772 --- -- ----- ph1994-10-14d2t10.wav
11:09.62 118157468 --- -- ----- ph1994-10-14d3t01.wav
3:31.59 37359212 --- -- ----- ph1994-10-14d3t02.wav
6:22.46 67493036 --- -- ----- ph1994-10-14d3t03.wav
4:45.35 50357204 -b- -- ----- ph1994-10-14d3t04.wav
170:52.00 1808453700 B (totals for 25 files, 1.0000 overall compression ratio)

Fixed Shntool Output:
length expanded size cdr WAVE problems filename
2:32.33 26890460 --- -- ----- ph1994-10-14d1t01.wav
4:54.53 51986300 --- -- ----- ph1994-10-14d1t02.wav
14:50.00 156996044 --- -- ----- ph1994-10-14d1t03.wav
1:18.08 13778060 --- -- ----- ph1994-10-14d1t04.wav
5:15.17 55606028 --- -- ----- ph1994-10-14d1t05.wav
7:10.69 76014332 --- -- ----- ph1994-10-14d1t06.wav
12:25.63 131566220 --- -- ----- ph1994-10-14d1t07.wav
2:10.03 22939100 --- -- ----- ph1994-10-14d1t08.wav
6:03.29 64101452 --- -- ----- ph1994-10-14d1t09.wav
11:56.41 126398876 --- -- ----- ph1994-10-14d1t10.wav
6:19.62 67001468 --- -- ----- ph1994-10-14d1t11.wav
7:21.08 77811260 --- -- ----- ph1994-10-14d2t01.wav
6:56.15 73417724 --- -- ----- ph1994-10-14d2t02.wav
13:50.01 146414396 --- -- ----- ph1994-10-14d2t03.wav
8:17.28 87736700 --- -- ----- ph1994-10-14d2t04.wav
10:52.73 115184540 --- -- ----- ph1994-10-14d2t05.wav
9:13.53 97673900 --- -- ----- ph1994-10-14d2t06.wav
3:20.41 35376476 --- -- ----- ph1994-10-14d2t07.wav
3:04.73 32629340 --- -- ----- ph1994-10-14d2t08.wav
3:06.13 32841020 --- -- ----- ph1994-10-14d2t09.wav
4:02.14 42721772 --- -- ----- ph1994-10-14d2t10.wav
11:09.62 118157468 --- -- ----- ph1994-10-14d3t01.wav
3:31.59 37359212 --- -- ----- ph1994-10-14d3t02.wav
6:22.46 67493036 --- -- ----- ph1994-10-14d3t03.wav
4:45.36 50358716 --- -- ----- ph1994-10-14d3t04.wav
170:52.00 1808453900 B (totals for 25 files, 1.0000 overall compression ratio)





*******************************************************
ORIGINAL TEXT FILE
*******************************************************

Phish
10-14-94
McAllister Auditorium, Tulane University, New Orleans, LA

Source: AKG460's>ck61
Conversion: Tascam DA-20 > Coax > Waveterminal 2496 > Cool Edit Pro 2000 >
CD Wav > MKW Act > Shn

Recorded by:
unknown

Converted by:
Alec Swensen

Disc One:

01  Buried Alive            (2:32)
02  Sample in a Jar         (4:54)
03  Divided Sky             (14:52)
04  The Horse               (1:18)
05  Silent in the Morning   (5:15)
06  P.Y.I.T.E               (7:10)
07  Bathtub Gin             (12:25)
08  Sweet Adeline*          (2:10)
09  Rift                    (6:03)
10  Colonel Forbin's Ascent (11:56)
11  Famous Mocking Bird     (6:19)

Disc Two:

01  Julius                  (7:21)
02  The Curtain             (6:56)
03  Tweezer                 (13:50)
04  Lifeboy                 (8:17)
05  Guyute                  (10:52)
06  Chalkdust Torture       (9:13)
07  Nellie Cane*            (3:20)
08  Beaumont Rag#*          (3:04)
09  Foreplay*               (3:06)
10  Long Time*              (4:02)

Disc Three:

01  The Squirming Coil      (11:09)
02  Tweezer Reprise         (3:31)
03  Yar Mar**               (6:22)
04  Cavern**                (4:45)


*Acoustic.
#First time played.
**With Michael Ray on trumpet and shaker and Carl Gearhard on trumpet.


NOTE:
Digi Noise in Bathtub Gin at 9:10 and 9:24 (on the orginal DAT)
DAT skip in Divided Sky at 6:40
I edited a drop out before the encore (on the orginal DAT)
Show Checksums
d3
260e6be34c183264c813e829a7dc1092 *ph1994-10-14d3t01.shn
95d89f3b5245acdd367e9e41b8fa7a17 *ph1994-10-14d3t02.shn
9bdd559678321e3edebc8fcead892390 *ph1994-10-14d3t03.shn
573d3ebf551410fa95225f54b49ef0e7 *ph1994-10-14d3t04.shn
d2
8c9a57bc33c9b4229abaa514c941bd52 *ph1994-10-14d2t01.shn
10477011aeb5339e4e3259deb3db93be *ph1994-10-14d2t02.shn
303345ebe10cfad3c5af8267e77e423b *ph1994-10-14d2t03.shn
7c6076d1f803edbf8cff9ccc830da9bf *ph1994-10-14d2t04.shn
d6c1174dd2635974f78740e6214731b1 *ph1994-10-14d2t05.shn
5693fc48e9780b7822227211bf0899f2 *ph1994-10-14d2t06.shn
16d7c373b608aabea4bc328a337853c7 *ph1994-10-14d2t07.shn
72c066b284112e788c93041caa031ee6 *ph1994-10-14d2t08.shn
ea0bc891729eac1bfbded039f652dae8 *ph1994-10-14d2t09.shn
636f4f4cbade96494d66ce0be03205d9 *ph1994-10-14d2t10.shn
d1
1d64aa0140f2cdf1be588b59816e41ac *ph1994-10-14d1t01.shn
c437313823c15780024a25be07610d6d *ph1994-10-14d1t02.shn
f7b282f4795a1f3e8594c373f2ef7bb0 *ph1994-10-14d1t03.shn
fad32e162290ce22c66afddb0a1f4752 *ph1994-10-14d1t04.shn
eddc08ad18c3f1210f4340c4988260aa *ph1994-10-14d1t05.shn
eeb8f8152f2a8321f062bfb38bdd3ea1 *ph1994-10-14d1t06.shn
19561041df15d2e9e71b1814ecd8539f *ph1994-10-14d1t07.shn
3e898b49c4ddb9325ad7e13134d33ba9 *ph1994-10-14d1t08.shn
4d7065313e89a8c922727acb54fb5129 *ph1994-10-14d1t09.shn
5a84d44772274df3a1db6d928cf0c3c3 *ph1994-10-14d1t10.shn
b287eee0fe433812c16b00e44a413740 *ph1994-10-14d1t11.shn
all_ffp
ph1994-10-14d1t01.flac:4f02d39d663f3018902f1e3096a9fb4f
ph1994-10-14d1t02.flac:a3ec5d983e621be204d0ed5277549b55
ph1994-10-14d1t03.flac:3c25ceb51221b0e5d2df108a9752ca43
ph1994-10-14d1t04.flac:ebf38065dc182fe9f9545e52481e7408
ph1994-10-14d1t05.flac:95f7d9ea81e29fc945e649e68baba4bb
ph1994-10-14d1t06.flac:116c46955bdf6759aebc532c970b0d46
ph1994-10-14d1t07.flac:b528606cc4381e0dde28f57074b24a8b
ph1994-10-14d1t08.flac:b02bc4d01c849a8d52fb5dd7b41ee07e
ph1994-10-14d1t09.flac:35ca345ec442e378fd6df04545b4a134
ph1994-10-14d1t10.flac:bd2ac1a70c663c50aa3790f93c979ec1
ph1994-10-14d1t11.flac:1a390736368c34f897b84f1be27f9f58
ph1994-10-14d2t01.flac:0c86a3da7f478c6f231caa34ec9f13b7
ph1994-10-14d2t02.flac:d8acfa482afaeb7580e2619f449edadb
ph1994-10-14d2t03.flac:d016a6ee7eabd34c3824b5a007cbe1c1
ph1994-10-14d2t04.flac:70578cc5c0b8f1e5d314737158c6454c
ph1994-10-14d2t05.flac:325fad4e67a360672e999383d33e7959
ph1994-10-14d2t06.flac:a3fb00ca1bf9874c66bfd2db055c4e75
ph1994-10-14d2t07.flac:3fbd6e097312789babe524d1b3cd1534
ph1994-10-14d2t08.flac:6b109dcd3991165426724d7b0fa72241
ph1994-10-14d2t09.flac:923949236cb9480d3e5e0d79d411e297
ph1994-10-14d2t10.flac:c3fb427123116b13fe97e09ed9855a4a
ph1994-10-14d3t01.flac:8cf29602efebe77ee73198b65f25a6a4
ph1994-10-14d3t02.flac:6ed6a9b5a4051b84461cc9931b5850aa
ph1994-10-14d3t03.flac:f4b15c19b80eac1d4e3e1c8b9a4670c8
ph1994-10-14d3t04.flac:a8d02afd071a266c404643b66e109b6f

Comments
Add Comment
Date User Comment
02/19/2004 mgouker The diginoise that is noted in Bathtub Gin is actually pervasive throughout the Gamehendge Narration and elsewhere. That being said, it is a fine, fine show and still worth the listen and then some. Check out Alabama & Mississippi too. Nice run.