Browse Collections Artists Sources   Search Dates

Add Show    List Management    Help


Phish 07/03/13
Darling's Waterfront Pavilion, Bangor, ME
Comments Add Comment    Source Collectors    Add to Collection    Add to Want List    History
Source # 124936 Other Sources
Entered by Jason Sobel
Checksums 16bit-FFP
Disc Counts 0 / 0
Media Size Compressed: 911.08 MB (955338602 bytes)
Date Circulated
Date Added
07/04/2013
07/04/2013
Source Summary flac16; (FOB) Schoeps MK22 > KC5 > CMC6 > Sonosax SX-R4 (24bit/96khz); WAV > USB > Macbook Pro > Wave Editor (tracking, fades, resample/dither) > XAct (FLAC 8); Taped & Transferred by Andy Murray 
Source Information - Download Text | Download Zip
Phish
2013-07-03
Darling's Waterfront Pavilion
Bangor, ME

mics were 50' from stage dfc 21cm/110 degrees

Source:
Schoeps MK22>KC5>CMC6>Sonosax SX-R4 (24bit/96khz)

Lineage:
WAV>USB>Macbook Pro>Wave Editor(tracking,fades,resample(izotope)/dither(mbit+)to 16 bit/44.1k)>XAct(FLAC 8,ffp,fix sbe)

Taped by: Andy Murray
Transferred by: Andy Murray

Thanks to our team of blockers.

Set 1:

01. crowd
02. Possum >
03. Runaway Jim
04. Stash
05. NICU >
06. Wolfman's Brother
07. Rift
08. Theme From the Bottom >
09. Chalk Dust Torture
10. Mike's Song >
11. Silent in the Morning >
12. Weekapaug Groove

Set 2:

01. crowd
02. Golden Age [1] >
03. Twist >
04. Backwards Down the Number Line
05. Ocelot
06. Rock and Roll >
07. Also Sprach Zarathustra >
08. Cavern >
09. Run Like an Antelope
10. encore break

Encore:
11. Harry Hood [2]

[1] Manteca teases (Page).
[2] Divided Sky tease.

;flac fingerprints generated by xACT 2.23 on 2013-07-04 15:52:15 -0400

ph2013-07-03_mk22_1644_d1t01.flac:38685887cf53b020d8b229c3f63df349
ph2013-07-03_mk22_1644_d1t02.flac:fd0fa94f40da5e56ab3aab46b92dcff2
ph2013-07-03_mk22_1644_d1t03.flac:2589f47fe715c01add62cfecd5b0b889
ph2013-07-03_mk22_1644_d1t04.flac:537e1c08a4993eb29b2ed7abdc66a772
ph2013-07-03_mk22_1644_d1t05.flac:ccbc09f09e929ac0046a202cb41e309a
ph2013-07-03_mk22_1644_d1t06.flac:3259e6ba22e5625c26b0b1b1e3302d86
ph2013-07-03_mk22_1644_d1t07.flac:837fa96d3b2b2d55aca592923847ee76
ph2013-07-03_mk22_1644_d1t08.flac:c6b505a1838ea11341205d8f59aa1e78
ph2013-07-03_mk22_1644_d1t09.flac:3448dfe511e9bccd5b98ed3a0f5f3a85
ph2013-07-03_mk22_1644_d1t10.flac:671ff86004a48d4960aeb9e94ad07805
ph2013-07-03_mk22_1644_d1t11.flac:a292c756ea0d48fad3b03614fe7a52bf
ph2013-07-03_mk22_1644_d1t12.flac:f40ec34c376f277b27a0ac50b64a3623
ph2013-07-03_mk22_1644_d2t01.flac:859d1aa08a16cf9e5458d983292037c3
ph2013-07-03_mk22_1644_d2t02.flac:9b81339dd8577c9dc6edaa034dd38bb0
ph2013-07-03_mk22_1644_d2t03.flac:b3b5a23be02942d87192c39169b0c95f
ph2013-07-03_mk22_1644_d2t04.flac:2c503f34687ee759227b6eab421ebab5
ph2013-07-03_mk22_1644_d2t05.flac:8307025c0cf967b88ffbad6e77bcfda8
ph2013-07-03_mk22_1644_d2t06.flac:ed02e2315ee6b3ea4a934ad1ccfd2edb
ph2013-07-03_mk22_1644_d2t07.flac:4bd884d6db98c9ad9346907b198df57a
ph2013-07-03_mk22_1644_d2t08.flac:f33aa075153dd1c51e3ca5fda2731dd4
ph2013-07-03_mk22_1644_d2t09.flac:a2a83c18b42635cce4a193d404cf38c9
ph2013-07-03_mk22_1644_d2t10.flac:17fcdb0af12672e3b830277df3b73da9
ph2013-07-03_mk22_1644_d2t11.flac:24ce14fa121070be10c91b9023d1cd3a

    length     expanded size    cdr  WAVE problems  fmt   ratio  filename
     0:52.16        9210476 B   ---   --   -----    wav  1.0000  ph2013-07-03_mk22_1644_d1t01.wav
     8:19.26       88084796 B   ---   --   -----    wav  1.0000  ph2013-07-03_mk22_1644_d1t02.wav
    11:20.13      119982620 B   ---   --   -----    wav  1.0000  ph2013-07-03_mk22_1644_d1t03.wav
    12:06.14      128099372 B   ---   --   -----    wav  1.0000  ph2013-07-03_mk22_1644_d1t04.wav
     5:17.18       55961180 B   ---   --   -----    wav  1.0000  ph2013-07-03_mk22_1644_d1t05.wav
    10:03.60      106510364 B   ---   --   -----    wav  1.0000  ph2013-07-03_mk22_1644_d1t06.wav
     6:21.65       67361324 B   ---   --   -----    wav  1.0000  ph2013-07-03_mk22_1644_d1t07.wav
     9:39.15      102170924 B   ---   --   -----    wav  1.0000  ph2013-07-03_mk22_1644_d1t08.wav
     6:53.09       72874412 B   ---   --   -----    wav  1.0000  ph2013-07-03_mk22_1644_d1t09.wav
     9:10.37       97107068 B   ---   --   -----    wav  1.0000  ph2013-07-03_mk22_1644_d1t10.wav
     5:12.14       55069772 B   ---   --   -----    wav  1.0000  ph2013-07-03_mk22_1644_d1t11.wav
     9:24.04       99499052 B   ---   --   -----    wav  1.0000  ph2013-07-03_mk22_1644_d1t12.wav
     1:23.68       14801180 B   ---   --   -----    wav  1.0000  ph2013-07-03_mk22_1644_d2t01.wav
    13:55.28      147359900 B   ---   --   -----    wav  1.0000  ph2013-07-03_mk22_1644_d2t02.wav
     7:06.60       75287564 B   ---   --   -----    wav  1.0000  ph2013-07-03_mk22_1644_d2t03.wav
     8:51.74       93842492 B   ---   --   -----    wav  1.0000  ph2013-07-03_mk22_1644_d2t04.wav
     9:16.53       98203100 B   ---   --   -----    wav  1.0000  ph2013-07-03_mk22_1644_d2t05.wav
     9:45.25      103252844 B   ---   --   -----    wav  1.0000  ph2013-07-03_mk22_1644_d2t06.wav
     6:24.12       67765868 B   ---   --   -----    wav  1.0000  ph2013-07-03_mk22_1644_d2t07.wav
     4:18.51       45631196 B   ---   --   -----    wav  1.0000  ph2013-07-03_mk22_1644_d2t08.wav
    12:34.66      133160876 B   ---   --   -----    wav  1.0000  ph2013-07-03_mk22_1644_d2t09.wav
     2:59.09       31596812 B   ---   --   -----    wav  1.0000  ph2013-07-03_mk22_1644_d2t10.wav
    15:33.66      164736476 B   ---   --   -----    wav  1.0000  ph2013-07-03_mk22_1644_d2t11.wav
   186:50.53     1977569668 B                            1.0000  (23 files)



Show Checksums
16bit-FFP
ph2013-07-03_mk22_1644_d1t01.flac:38685887cf53b020d8b229c3f63df349
ph2013-07-03_mk22_1644_d1t02.flac:fd0fa94f40da5e56ab3aab46b92dcff2
ph2013-07-03_mk22_1644_d1t03.flac:2589f47fe715c01add62cfecd5b0b889
ph2013-07-03_mk22_1644_d1t04.flac:537e1c08a4993eb29b2ed7abdc66a772
ph2013-07-03_mk22_1644_d1t05.flac:ccbc09f09e929ac0046a202cb41e309a
ph2013-07-03_mk22_1644_d1t06.flac:3259e6ba22e5625c26b0b1b1e3302d86
ph2013-07-03_mk22_1644_d1t07.flac:837fa96d3b2b2d55aca592923847ee76
ph2013-07-03_mk22_1644_d1t08.flac:c6b505a1838ea11341205d8f59aa1e78
ph2013-07-03_mk22_1644_d1t09.flac:3448dfe511e9bccd5b98ed3a0f5f3a85
ph2013-07-03_mk22_1644_d1t10.flac:671ff86004a48d4960aeb9e94ad07805
ph2013-07-03_mk22_1644_d1t11.flac:a292c756ea0d48fad3b03614fe7a52bf
ph2013-07-03_mk22_1644_d1t12.flac:f40ec34c376f277b27a0ac50b64a3623
ph2013-07-03_mk22_1644_d2t01.flac:859d1aa08a16cf9e5458d983292037c3
ph2013-07-03_mk22_1644_d2t02.flac:9b81339dd8577c9dc6edaa034dd38bb0
ph2013-07-03_mk22_1644_d2t03.flac:b3b5a23be02942d87192c39169b0c95f
ph2013-07-03_mk22_1644_d2t04.flac:2c503f34687ee759227b6eab421ebab5
ph2013-07-03_mk22_1644_d2t05.flac:8307025c0cf967b88ffbad6e77bcfda8
ph2013-07-03_mk22_1644_d2t06.flac:ed02e2315ee6b3ea4a934ad1ccfd2edb
ph2013-07-03_mk22_1644_d2t07.flac:4bd884d6db98c9ad9346907b198df57a
ph2013-07-03_mk22_1644_d2t08.flac:f33aa075153dd1c51e3ca5fda2731dd4
ph2013-07-03_mk22_1644_d2t09.flac:a2a83c18b42635cce4a193d404cf38c9
ph2013-07-03_mk22_1644_d2t10.flac:17fcdb0af12672e3b830277df3b73da9
ph2013-07-03_mk22_1644_d2t11.flac:24ce14fa121070be10c91b9023d1cd3a

Comments
Add Comment
Other Sources (comments)
flac24; (FOB)... (0) flac16; (FOB)... (0) flac24; (FOB)... (0) flac24; DPA 4011 >... (0) flac16; DPA 4011 >... (0) flac24; (FOB)... (0) flac16; (FOB)... (0) flac16; AKG 392's >... (0) flac24; AKG 392's >... (0) flac24;... (0) flac16;... (0)
Date User Comment