Browse Collections Artists Sources   Search Dates

Add Show    List Management    Help


Phish 07/03/13
Darling's Waterfront Pavilion, Bangor, ME
Comments Add Comment    Source Collectors    Add to Collection    Add to Want List    History
Source # 124938 Other Sources
Entered by Jason Sobel
Checksums 16bit-FFP
Disc Counts 0 / 0
Media Size Compressed: 1.1 GB (1179037024 bytes)
Date Circulated
Date Added
07/04/2013
07/04/2013
Source Summary flac16; DPA 4011 > Lunatec V3 (digital out) > Edirol R44 (24/96); SDHC Card > Sound Forge Pro 10.0 (fades, Normalize, Izotope 5, resample, dither) > CD Wave > TLH > Flac (level 8); Taped & Transferred by Brian V. 
Source Information - Download Text | Download Zip
Phish
2013-07-03
Darling's Waterfront Pavilion
Bangor, ME


DPA 4011 > V3 Digital > R44 (24/96)
SDHC Card > Sound Forge Pro 10.0 (fades, Normalize, Izotope 5, resample iZotope 64-Bit SRC, dither iZotope MBIT+ Dither) > CD Wav (tracking) > TLH > Flac (level 8)
OTS/ROC/ORTF/10' high
Tags added in Foobar2000

Taped and Transferred by Brian V.

Set 1

01. Possum>
02. Runaway Jim
03. Stash
04. NICU>
05. Wolfman's Brother
06. Rift
07. Theme From the Bottom>
08. Chalk Dust Torture
09. Mike's Song>
10. Silent in the Morning>
11. Weekapaug Groove

Set 2

01. Golden Age$>
02. Twist>
03. Backwards Down the Number Line
04. Ocelot
05. Rock and Roll>
06. Also Sprach Zarathustra>
07. Cavern>
08. Run Like an Antelope
09. encore break
10. Harry Hood&

$ - Manteca teases (Page)
& - Divided Sky tease

***Support Bands That Allow Taping/Trading***

flac fingerprints
ph2013-07-03s1t01.flac:de5c29193001d2470973fa1ef1037e6d
ph2013-07-03s1t02.flac:2677bf262ccbf103ca9655fd60bdbe22
ph2013-07-03s1t03.flac:0ad4cbfb968b57430b72658f492096fb
ph2013-07-03s1t04.flac:2632ee4c793a35c2a14d240db4bcfa54
ph2013-07-03s1t05.flac:fe21d4f9f5526108620524f279e6f059
ph2013-07-03s1t06.flac:e4ff82e1bbc6cfe00e6ac988e76420e0
ph2013-07-03s1t07.flac:43251d66cefbd95c439cfa6c9e3cd74b
ph2013-07-03s1t08.flac:9ead617026cbc688e3013cab6abbd7fa
ph2013-07-03s1t09.flac:6be8dcab6c459be7c1a3d967dd46040a
ph2013-07-03s1t10.flac:ade227ce96533ec9c67c93a457be68eb
ph2013-07-03s1t11.flac:e469e22273baff768a3f2879236f8b00
ph2013-07-03s2t01.flac:e0dd4f4ca8598ad59a2926a32c8750ca
ph2013-07-03s2t02.flac:d0249f336bd3e259f1e38d9a4600641f
ph2013-07-03s2t03.flac:46e692ab8d8701ca80b124e008b18af2
ph2013-07-03s2t04.flac:84241249e1eaffbd5e9dbdb32f24eedd
ph2013-07-03s2t05.flac:1b1504e05fbaf66f5073bd4d0e4f3411
ph2013-07-03s2t06.flac:106b64892150e1967aaa6ae27a3b1274
ph2013-07-03s2t07.flac:f216eaf90e06dc4785a898ec8fe39e62
ph2013-07-03s2t08.flac:64f66284400957af39e8bec28c0e453b
ph2013-07-03s2t09.flac:9262c9557e5b59b9010bf9af1f659239
ph2013-07-03s2t10.flac:3a141e741510a428a5b27601bd91fbba

shntool output
length expanded size cdr WAVE problems fmt ratio filename
8:28.35 89693564 B --- -- ---xx flac 0.6098 ph2013-07-03s1t01.flac
11:21.54 120255452 B --- -- ---xx flac 0.5877 ph2013-07-03s1t02.flac
12:05.16 127927676 B --- -- ---xx flac 0.5740 ph2013-07-03s1t03.flac
5:16.58 55878860 B --- -- ---xx flac 0.5860 ph2013-07-03s1t04.flac
10:04.66 106700876 B --- -- ---xx flac 0.6066 ph2013-07-03s1t05.flac
6:20.74 67206092 B --- -- ---xx flac 0.5951 ph2013-07-03s1t06.flac
9:40.44 102415532 B --- -- ---xx flac 0.5874 ph2013-07-03s1t07.flac
6:54.01 73031996 B --- -- ---xx flac 0.6232 ph2013-07-03s1t08.flac
9:11.57 97330508 B --- -- ---xx flac 0.6109 ph2013-07-03s1t09.flac
5:08.31 54404156 B --- -- ---xx flac 0.5826 ph2013-07-03s1t10.flac
8:43.61 92400716 B --- -- ---xx flac 0.5963 ph2013-07-03s1t11.flac
14:19.54 151654652 B --- -- ---xx flac 0.5986 ph2013-07-03s2t01.flac
7:07.41 75419276 B --- -- ---xx flac 0.6218 ph2013-07-03s2t02.flac
8:53.21 94070636 B --- -- ---xx flac 0.6237 ph2013-07-03s2t03.flac
9:15.08 97920860 B --- -- ---xx flac 0.6178 ph2013-07-03s2t04.flac
9:44.61 103161116 B --- -- ---xx flac 0.6293 ph2013-07-03s2t05.flac
6:25.08 67932860 B --- -- ---xx flac 0.6053 ph2013-07-03s2t06.flac
4:17.09 45356012 B --- -- ---xx flac 0.6369 ph2013-07-03s2t07.flac
12:31.67 132634028 B --- -- ---xx flac 0.6093 ph2013-07-03s2t08.flac
3:02.56 32236556 B --- -- ---xx flac 0.6067 ph2013-07-03s2t09.flac
15:37.30 165357404 B --- -- ---xx flac 0.5968 ph2013-07-03s2t10.flac
184:31.27 1952988828 B 0.6037 (21 files)


Show Checksums
16bit-FFP
ph2013-07-03s1t01.flac:de5c29193001d2470973fa1ef1037e6d
ph2013-07-03s1t02.flac:2677bf262ccbf103ca9655fd60bdbe22
ph2013-07-03s1t03.flac:0ad4cbfb968b57430b72658f492096fb
ph2013-07-03s1t04.flac:2632ee4c793a35c2a14d240db4bcfa54
ph2013-07-03s1t05.flac:fe21d4f9f5526108620524f279e6f059
ph2013-07-03s1t06.flac:e4ff82e1bbc6cfe00e6ac988e76420e0
ph2013-07-03s1t07.flac:43251d66cefbd95c439cfa6c9e3cd74b
ph2013-07-03s1t08.flac:9ead617026cbc688e3013cab6abbd7fa
ph2013-07-03s1t09.flac:6be8dcab6c459be7c1a3d967dd46040a
ph2013-07-03s1t10.flac:ade227ce96533ec9c67c93a457be68eb
ph2013-07-03s1t11.flac:e469e22273baff768a3f2879236f8b00
ph2013-07-03s2t01.flac:e0dd4f4ca8598ad59a2926a32c8750ca
ph2013-07-03s2t02.flac:d0249f336bd3e259f1e38d9a4600641f
ph2013-07-03s2t03.flac:46e692ab8d8701ca80b124e008b18af2
ph2013-07-03s2t04.flac:84241249e1eaffbd5e9dbdb32f24eedd
ph2013-07-03s2t05.flac:1b1504e05fbaf66f5073bd4d0e4f3411
ph2013-07-03s2t06.flac:106b64892150e1967aaa6ae27a3b1274
ph2013-07-03s2t07.flac:f216eaf90e06dc4785a898ec8fe39e62
ph2013-07-03s2t08.flac:64f66284400957af39e8bec28c0e453b
ph2013-07-03s2t09.flac:9262c9557e5b59b9010bf9af1f659239
ph2013-07-03s2t10.flac:3a141e741510a428a5b27601bd91fbba

Comments
Add Comment
Other Sources (comments)
flac24; (FOB)... (0) flac16; (FOB)... (0) flac24; (FOB)... (0) flac16; (FOB)... (0) flac24; DPA 4011 >... (0) flac24; (FOB)... (0) flac16; (FOB)... (0) flac16; AKG 392's >... (0) flac24; AKG 392's >... (0) flac24;... (0) flac16;... (0)
Date User Comment