Browse Collections Artists Sources   Search Dates

Add Show    List Management    Help


Phish 07/03/13
Darling's Waterfront Pavilion, Bangor, ME
Comments Add Comment    Source Collectors    Add to Collection    Add to Want List    History
Source # 124943 Other Sources
Entered by Jason Sobel
Checksums 16bit-FFP
Disc Counts 0 / 0
Media Size Compressed: 919.02 MB (963664680 bytes)
Date Circulated
Date Added
07/04/2013
07/05/2013
Source Summary flac16; (FOB) Schoeps mk4 > Nbob actives > Naiant PFAs > Sonosax SX-R4 (24bit/96khz); WAV > USB > Macbook Pro > Wave Editor (tracking, fades, resample/dither) > XAct (FLAC 8); Taped & Transferred by Andy Murray 
Source Information - Download Text | Download Zip
Phish
2013-07-03
Darling's Waterfront Pavilion
Bangor, ME

mics were 50' from stage dfc ORTF

Source:
Schoeps mk4>Nbob actives>Naiant PFAs>Sonosax SX-R4 (24bit/96khz)

Lineage:
WAV>USB>Macbook Pro>Wave Editor(tracking,fades,resample(izotope)/dither(mbit+)to 16 bit/44.1k)>XAct(FLAC 8,ffp,fix sbe)

Taped by: Andy Murray
Transferred by: Andy Murray

Thanks to our team of blockers.

Set 1:

01. crowd
02. Possum >
03. Runaway Jim
04. Stash
05. NICU >
06. Wolfman's Brother
07. Rift
08. Theme From the Bottom >
09. Chalk Dust Torture
10. Mike's Song >
11. Silent in the Morning >
12. Weekapaug Groove

Set 2:

01. crowd
02. Golden Age [1] >
03. Twist >
04. Backwards Down the Number Line
05. Ocelot
06. Rock and Roll >
07. Also Sprach Zarathustra >
08. Cavern >
09. Run Like an Antelope
10. encore break

Encore:
11. Harry Hood [2]

[1] Manteca teases (Page).
[2] Divided Sky tease.

;flac fingerprints generated by xACT 2.23 on 2013-07-04 23:01:09 -0400

ph2013-07-03_mk4_1644_d1t01.flac:84fc061c67ececaacf57ca1107d0e42b
ph2013-07-03_mk4_1644_d1t02.flac:d11a4160e4fee82832a34566854797c9
ph2013-07-03_mk4_1644_d1t03.flac:632f3a9e3c5088637f8befc8dad82842
ph2013-07-03_mk4_1644_d1t04.flac:df78245db8917688aaf224490e3682ba
ph2013-07-03_mk4_1644_d1t05.flac:85f1257e2cff574088f22a305449ad92
ph2013-07-03_mk4_1644_d1t06.flac:90b4263eb89de9f059a6206fc035c11c
ph2013-07-03_mk4_1644_d1t07.flac:df5365ee048ded32f25103cfa4464dbc
ph2013-07-03_mk4_1644_d1t08.flac:f7485bae8caf1b06e7bd38fe324c8c69
ph2013-07-03_mk4_1644_d1t09.flac:642c93d0c3177adfb699531f13e0bd3a
ph2013-07-03_mk4_1644_d1t10.flac:5d1bdcda23e1f5c8bfc32366d7f3a951
ph2013-07-03_mk4_1644_d1t11.flac:e85d96e89bb1a8f47885bb5de8bae30f
ph2013-07-03_mk4_1644_d1t12.flac:131db9139842cd22ee7c9b67762f6215
ph2013-07-03_mk4_1644_d2t01.flac:605fd4218650ff7c11b75b8dd8f19e6a
ph2013-07-03_mk4_1644_d2t02.flac:4165e2c9703897a1def8ab8ff7561f57
ph2013-07-03_mk4_1644_d2t03.flac:478d9ba24c411a726dbe8f8074722c36
ph2013-07-03_mk4_1644_d2t04.flac:63ea80555e566d5996d5f36897f32923
ph2013-07-03_mk4_1644_d2t05.flac:db94f05d2a1d5fc0b13a8c9d0324c27a
ph2013-07-03_mk4_1644_d2t06.flac:552d8d7a233bee112818dafb224d5d89
ph2013-07-03_mk4_1644_d2t07.flac:7c5245bc59927559cff5d11bf74459b5
ph2013-07-03_mk4_1644_d2t08.flac:6e150ca7dcc38fc4c26c72c0293787f3
ph2013-07-03_mk4_1644_d2t09.flac:b49d527c0147ecc196ff352ead29f853
ph2013-07-03_mk4_1644_d2t10.flac:33cc9508873faac80c922aeaee10ae2c
ph2013-07-03_mk4_1644_d2t11.flac:8cd1fc35135a0dd68e5d07ba5bf649aa

    length     expanded size    cdr  WAVE problems  fmt   ratio  filename
     0:50.29        8888252 B   ---   --   -----    wav  1.0000  ph2013-07-03_mk4_1644_d1t01.wav
     8:23.07       88745708 B   ---   --   -----    wav  1.0000  ph2013-07-03_mk4_1644_d1t02.wav
    11:20.27      120015548 B   ---   --   -----    wav  1.0000  ph2013-07-03_mk4_1644_d1t03.wav
    12:05.46      127998236 B   ---   --   -----    wav  1.0000  ph2013-07-03_mk4_1644_d1t04.wav
     5:17.20       55965884 B   ---   --   -----    wav  1.0000  ph2013-07-03_mk4_1644_d1t05.wav
    10:05.00      106722044 B   ---   --   -----    wav  1.0000  ph2013-07-03_mk4_1644_d1t06.wav
     6:20.66       67187276 B   ---   --   -----    wav  1.0000  ph2013-07-03_mk4_1644_d1t07.wav
     9:39.47      102246188 B   ---   --   -----    wav  1.0000  ph2013-07-03_mk4_1644_d1t08.wav
     6:52.62       72822668 B   ---   --   -----    wav  1.0000  ph2013-07-03_mk4_1644_d1t09.wav
     9:13.54       97676252 B   ---   --   -----    wav  1.0000  ph2013-07-03_mk4_1644_d1t10.wav
     5:06.41       54074876 B   ---   --   -----    wav  1.0000  ph2013-07-03_mk4_1644_d1t11.wav
     9:25.46       99774236 B   ---   --   -----    wav  1.0000  ph2013-07-03_mk4_1644_d1t12.wav
     1:18.55       13888604 B   ---   --   -----    wav  1.0000  ph2013-07-03_mk4_1644_d2t01.wav
    14:00.49      148291292 B   ---   --   -----    wav  1.0000  ph2013-07-03_mk4_1644_d2t02.wav
     7:05.17       75010028 B   ---   --   -----    wav  1.0000  ph2013-07-03_mk4_1644_d2t03.wav
     8:53.52       94143548 B   ---   --   -----    wav  1.0000  ph2013-07-03_mk4_1644_d2t04.wav
     9:16.54       98205452 B   ---   --   -----    wav  1.0000  ph2013-07-03_mk4_1644_d2t05.wav
     9:44.73      103189340 B   ---   --   -----    wav  1.0000  ph2013-07-03_mk4_1644_d2t06.wav
     6:24.57       67871708 B   ---   --   -----    wav  1.0000  ph2013-07-03_mk4_1644_d2t07.wav
     4:17.43       45435980 B   ---   --   -----    wav  1.0000  ph2013-07-03_mk4_1644_d2t08.wav
    12:32.09      132674012 B   ---   --   -----    wav  1.0000  ph2013-07-03_mk4_1644_d2t09.wav
     3:02.25       32163644 B   ---   --   -----    wav  1.0000  ph2013-07-03_mk4_1644_d2t10.wav
    15:33.72      164750588 B   ---   --   -----    wav  1.0000  ph2013-07-03_mk4_1644_d2t11.wav
   186:51.51     1977741364 B                            1.0000  (23 files)


Show Checksums
16bit-FFP
ph2013-07-03_mk4_1644_d1t01.flac:84fc061c67ececaacf57ca1107d0e42b
ph2013-07-03_mk4_1644_d1t02.flac:d11a4160e4fee82832a34566854797c9
ph2013-07-03_mk4_1644_d1t03.flac:632f3a9e3c5088637f8befc8dad82842
ph2013-07-03_mk4_1644_d1t04.flac:df78245db8917688aaf224490e3682ba
ph2013-07-03_mk4_1644_d1t05.flac:85f1257e2cff574088f22a305449ad92
ph2013-07-03_mk4_1644_d1t06.flac:90b4263eb89de9f059a6206fc035c11c
ph2013-07-03_mk4_1644_d1t07.flac:df5365ee048ded32f25103cfa4464dbc
ph2013-07-03_mk4_1644_d1t08.flac:f7485bae8caf1b06e7bd38fe324c8c69
ph2013-07-03_mk4_1644_d1t09.flac:642c93d0c3177adfb699531f13e0bd3a
ph2013-07-03_mk4_1644_d1t10.flac:5d1bdcda23e1f5c8bfc32366d7f3a951
ph2013-07-03_mk4_1644_d1t11.flac:e85d96e89bb1a8f47885bb5de8bae30f
ph2013-07-03_mk4_1644_d1t12.flac:131db9139842cd22ee7c9b67762f6215
ph2013-07-03_mk4_1644_d2t01.flac:605fd4218650ff7c11b75b8dd8f19e6a
ph2013-07-03_mk4_1644_d2t02.flac:4165e2c9703897a1def8ab8ff7561f57
ph2013-07-03_mk4_1644_d2t03.flac:478d9ba24c411a726dbe8f8074722c36
ph2013-07-03_mk4_1644_d2t04.flac:63ea80555e566d5996d5f36897f32923
ph2013-07-03_mk4_1644_d2t05.flac:db94f05d2a1d5fc0b13a8c9d0324c27a
ph2013-07-03_mk4_1644_d2t06.flac:552d8d7a233bee112818dafb224d5d89
ph2013-07-03_mk4_1644_d2t07.flac:7c5245bc59927559cff5d11bf74459b5
ph2013-07-03_mk4_1644_d2t08.flac:6e150ca7dcc38fc4c26c72c0293787f3
ph2013-07-03_mk4_1644_d2t09.flac:b49d527c0147ecc196ff352ead29f853
ph2013-07-03_mk4_1644_d2t10.flac:33cc9508873faac80c922aeaee10ae2c
ph2013-07-03_mk4_1644_d2t11.flac:8cd1fc35135a0dd68e5d07ba5bf649aa

Comments
Add Comment
Other Sources (comments)
flac24; (FOB)... (0) flac16; (FOB)... (0) flac24; (FOB)... (0) flac16; (FOB)... (0) flac24; DPA 4011 >... (0) flac16; DPA 4011 >... (0) flac24; (FOB)... (0) flac16; AKG 392's >... (0) flac24; AKG 392's >... (0) flac24;... (0) flac16;... (0)
Date User Comment