Browse Collections Artists Sources   Search Dates

Add Show    List Management    Help


Phish 07/05/13
Saratoga Performing Arts Center, Saratoga Springs, NY
Comments Add Comment    Source Collectors    Add to Collection    Add to Want List    History
Source # 124964 Other Sources
Entered by Jason Sobel
Checksums 16bit-FFP
Disc Counts 0 / 0
Media Size Compressed: 919.72 MB (964399973 bytes)
Date Circulated
Date Added
07/06/2013
07/07/2013
Source Summary flac16; DPA 4011 > Lunatec V3 (digital out) > Edirol R44 (24/96); SDHC Card > Sound Forge Pro 10.0 (fades, Normalize, resample, dither) > CD Wave (tracking) > TLH > Flac (level 8); Taped & Transferred by Brian V. 
Source Information - Download Text | Download Zip
Phish
2013-07-05
Saratoga Performing Arts Center
Saratoga Springs, NY

DPA 4011 > V3 Digital > R44 (24/96)
SDHC Card > Sound Forge Pro 10.0 (fades, Normalize, resample iZotope 64-Bit SRC, dither iZotope MBIT+ Dither) > CD Wav (tracking) > TLH > Flac (level 8)
OTS/DFC/DIN/7' high
Tags added in Foobar2000

Taped and Transferred by Brian V

Set 1

01. Kill Devil Falls
02. Moma Dance >
03. Sample in a Jar
04. crowwd
05. Roses are Free >
06. Birds of a Feather
07. cfrowd/banter
08. Yarmouth Road&
09. Bathtub Gin
10. Nellie Kane
11. Army of One >
12. My Friend My Friend >
13. Cities >
14. David Bowie

Set 2

01. Energy$ >
02. Light >
03. The Mango Song
04. 46 Days >
05. Steam
06. Drowned
07. Slave to the Traffic Light
08. encore break
09. Character Zero

& first time played
$ first time played, The Apples in Stereo cover

flac fingerprints
ph2013-07-05s1t01.flac:c6d405a485d1988c0f4dbe423ed676d9
ph2013-07-05s1t02.flac:a6a5a96ce676c76db9b66ecd4c985486
ph2013-07-05s1t03.flac:b5aed999f9c12e180e8e08cfa6134b14
ph2013-07-05s1t04.flac:0de50ba9070a165853126066969445d7
ph2013-07-05s1t05.flac:eabf04fa0d29edf48719f17936d0d8a2
ph2013-07-05s1t06.flac:101f07752378d110487a84f8157896ce
ph2013-07-05s1t07.flac:33349ecdd89eee9e13704fac5a5176e6
ph2013-07-05s1t08.flac:dedc7ba98f03892307bc6a51c2da849e
ph2013-07-05s1t09.flac:19f2bff77b1c540046a22be3ccdb45f3
ph2013-07-05s1t10.flac:1fe3902e63b093fcbd8f6143aff3caee
ph2013-07-05s1t11.flac:37540f5d114dff431a7cf21e3b1a725b
ph2013-07-05s1t12.flac:331e53bcc7d256f6dfa69bca8cae5af1
ph2013-07-05s1t13.flac:13b869133ad21fc1054f393031da3dc1
ph2013-07-05s1t14.flac:981101ad4c8d5d2a0320c606339932c7
ph2013-07-05s2t01.flac:02591d4eca35510eadd08371522c279d
ph2013-07-05s2t02.flac:2d45e5ebbfbe7718bd023ac5d557aba5
ph2013-07-05s2t03.flac:f93453c49ce6d82682c1bda3ec39f3f6
ph2013-07-05s2t04.flac:2363f6a5c54f43b52618b33216b94808
ph2013-07-05s2t05.flac:700b5c3c35025e70a65d07158ac8825f
ph2013-07-05s2t06.flac:f0d4b3a57035d2871bf256cbb9dc9e4d
ph2013-07-05s2t07.flac:196e1b81ca775662b5e4bdaed1352ebb
ph2013-07-05s2t08.flac:ae495ce65f8c3f182abf1842725db9f5
ph2013-07-05s2t09.flac:bdbcc6411c7596e7ed6b639cab6d813a

shntool output
    length     expanded size    cdr  WAVE problems  fmt   ratio  filename
     8:45.08       92628860 B   ---   --   ---xx   flac  0.5622  ph2013-07-05s1t01.flac
     7:45.26       82087196 B   ---   --   ---xx   flac  0.5573  ph2013-07-05s1t02.flac
     6:07.46       64847036 B   ---   --   ---xx   flac  0.5513  ph2013-07-05s1t03.flac
     1:25.05       15005804 B   ---   --   ---xx   flac  0.4525  ph2013-07-05s1t04.flac
     5:30.48       58324940 B   ---   --   ---xx   flac  0.5440  ph2013-07-05s1t05.flac
     7:02.06       74454956 B   ---   --   ---xx   flac  0.5407  ph2013-07-05s1t06.flac
     2:02.18       21563180 B   ---   --   ---xx   flac  0.4533  ph2013-07-05s1t07.flac
     5:52.74       62266892 B   ---   --   ---xx   flac  0.5231  ph2013-07-05s1t08.flac
    11:55.41      126222476 B   ---   --   ---xx   flac  0.5288  ph2013-07-05s1t09.flac
     3:02.29       32173052 B   ---   --   ---xx   flac  0.5148  ph2013-07-05s1t10.flac
     4:24.16       46607276 B   ---   --   ---xx   flac  0.5116  ph2013-07-05s1t11.flac
     6:12.60       65761964 B   ---   --   ---xx   flac  0.5306  ph2013-07-05s1t12.flac
     7:15.38       76823420 B   ---   --   ---xx   flac  0.5168  ph2013-07-05s1t13.flac
    11:56.39      126394172 B   ---   --   ---xx   flac  0.5263  ph2013-07-05s1t14.flac
     5:55.18       62664380 B   ---   --   ---xx   flac  0.5596  ph2013-07-05s2t01.flac
    15:11.66      160855676 B   ---   --   ---xx   flac  0.5294  ph2013-07-05s2t02.flac
     7:50.58       83044460 B   ---   --   ---xx   flac  0.5205  ph2013-07-05s2t03.flac
     6:48.61       72114716 B   ---   --   ---xx   flac  0.5587  ph2013-07-05s2t04.flac
    12:40.66      134219276 B   ---   --   ---xx   flac  0.5257  ph2013-07-05s2t05.flac
    10:53.22      115240988 B   ---   --   ---xx   flac  0.5337  ph2013-07-05s2t06.flac
    12:14.58      129614060 B   ---   --   ---xx   flac  0.5057  ph2013-07-05s2t07.flac
     2:50.33       30065660 B   ---   --   ---xx   flac  0.5057  ph2013-07-05s2t08.flac
     7:23.36       78229916 B   ---   --   ---xx   flac  0.5734  ph2013-07-05s2t09.flac
   171:07.47     1811210356 B                            0.5325  (23 files)
Show Checksums
16bit-FFP
ph2013-07-05s1t01.flac:c6d405a485d1988c0f4dbe423ed676d9
ph2013-07-05s1t02.flac:a6a5a96ce676c76db9b66ecd4c985486
ph2013-07-05s1t03.flac:b5aed999f9c12e180e8e08cfa6134b14
ph2013-07-05s1t04.flac:0de50ba9070a165853126066969445d7
ph2013-07-05s1t05.flac:eabf04fa0d29edf48719f17936d0d8a2
ph2013-07-05s1t06.flac:101f07752378d110487a84f8157896ce
ph2013-07-05s1t07.flac:33349ecdd89eee9e13704fac5a5176e6
ph2013-07-05s1t08.flac:dedc7ba98f03892307bc6a51c2da849e
ph2013-07-05s1t09.flac:19f2bff77b1c540046a22be3ccdb45f3
ph2013-07-05s1t10.flac:1fe3902e63b093fcbd8f6143aff3caee
ph2013-07-05s1t11.flac:37540f5d114dff431a7cf21e3b1a725b
ph2013-07-05s1t12.flac:331e53bcc7d256f6dfa69bca8cae5af1
ph2013-07-05s1t13.flac:13b869133ad21fc1054f393031da3dc1
ph2013-07-05s1t14.flac:981101ad4c8d5d2a0320c606339932c7
ph2013-07-05s2t01.flac:02591d4eca35510eadd08371522c279d
ph2013-07-05s2t02.flac:2d45e5ebbfbe7718bd023ac5d557aba5
ph2013-07-05s2t03.flac:f93453c49ce6d82682c1bda3ec39f3f6
ph2013-07-05s2t04.flac:2363f6a5c54f43b52618b33216b94808
ph2013-07-05s2t05.flac:700b5c3c35025e70a65d07158ac8825f
ph2013-07-05s2t06.flac:f0d4b3a57035d2871bf256cbb9dc9e4d
ph2013-07-05s2t07.flac:196e1b81ca775662b5e4bdaed1352ebb
ph2013-07-05s2t08.flac:ae495ce65f8c3f182abf1842725db9f5
ph2013-07-05s2t09.flac:bdbcc6411c7596e7ed6b639cab6d813a

Comments
Add Comment
Other Sources (comments)
flac24; Schoeps MK41... (0) flac16; Schoeps MK41... (0) flac24; DPA 4011 >... (0) flac16; DPA 4023 >... (0) flac24; DPA 4023 >... (0) flac16; Neumann... (0) flac16; Neumann... (0) flac16; Neumann... (0) flac16; DPA 4023 >... (0) flac24; DPA 4023 >... (0) flac16; DPA 4052 >... (0) flac24; DPA 4052 >... (0) flac16; DPA 4023 >... (0) flac24; DPA 4023 >... (0)
Date User Comment