Browse Collections Artists Sources   Search Dates

Add Show    List Management    Help


Phish 07/07/13
Saratoga Performing Arts Center, Saratoga Springs, NY
Comments Add Comment    Source Collectors    Add to Collection    Add to Want List    History
Source # 124974 Other Sources
Entered by Jason Sobel
Checksums 24bit-FFP
Disc Counts 0 / 0
Media Size Compressed: 3.12 GB (3347316981 bytes)
Date Circulated
Date Added
07/08/2013
07/08/2013
Source Summary flac24; DPA 4011 > Lunatec V3 (digital out) > Edirol R44 (24/96); SDHC Card > Sound Forge Pro 10.0 (fades, Normalize) > CD Wave (tracking) > TLH > Flac (level 8); Taped & Transferred by Brian V. 
Source Information - Download Text | Download Zip
Phish
2013-07-07
Saratoga Performing Arts Center
Saratoga Springs, NY

DPA 4011 > V3 Digital > R44 (24/96)
SDHC Card > Sound Forge Pro 10.0 (fades, Normalize) > CD Wav (tracking) > TLH > Flac (level 8)
OTS/a bit LOC, clamped to back rail of FOH/DIN/8' high
Tags added in Foobar2000

Taped and Transferred by Brian V

Set 1

01. AC/DC Bag >
02. Back on the Train >
03. Divided Sky
04. Free
05. It's Ice >
06. Mound
07. Maze
08. Limb By Limb
09. Walls of the Cave

Set 2

01. Down with Disease% >
02. Ghost& >
03. [email protected] >
04. Wading in the Velvet Sea >
05. Run Like an Antelope# >
06. Meatstick$ >
07. You Enjoy Myself
08. encore break
09. Loving Cup

% Unfinished.
& Jumpin' Jack Flash teases.
@ DEG tease from Trey.
# Lyrics changed to reference Meatstick.
$ Japanese lyrics.

Trey teased Call to the Post prior to the start of DWD. DWD was unfinished. Ghost contained Jumpin' Jack Flash teases. Piper contained a DEG tease from Trey. The lyrics to Antelope were changed throughout to reference Meatstick that would ensue. Meatstick included the Japanese lyrics.

thanks to Andy for the clamp space

flac fingerprints
ph2013-07-07s1t01.flac:d01f8d0bbd9a41ba737b8e57a72c1d92
ph2013-07-07s1t02.flac:c90dc0adb08c048bbe948f9bc1ff77df
ph2013-07-07s1t03.flac:8a3d6e1c67c23a978ebd3c000bb84d3d
ph2013-07-07s1t04.flac:1dc1d075b707ec0ca417d4936e19b81c
ph2013-07-07s1t05.flac:549aae1c593215421dfea6e4f7149aa5
ph2013-07-07s1t06.flac:30b726f7695f0d04cd442eafdad7ce4d
ph2013-07-07s1t07.flac:fc527a4d0b04d289b4c363aab4de4de7
ph2013-07-07s1t08.flac:0b886f5f76ab52d78b2f14f0e9f57e1d
ph2013-07-07s1t09.flac:de079c55d0040783e187c92ef9a4b272
ph2013-07-07s2t01.flac:617cb594d5926760b99ff85fbfb20330
ph2013-07-07s2t02.flac:735db15fd95f3ebf68cd5cdea610a17d
ph2013-07-07s2t03.flac:d60dd7d7403a5ea2d4c3ecf20faa10ce
ph2013-07-07s2t04.flac:4b37a93d464b084e485cbd3ef0539963
ph2013-07-07s2t05.flac:569e8cf9d001915207ee1044ad7eab88
ph2013-07-07s2t06.flac:2d2b0ac36367466000fa364c914ee3bd
ph2013-07-07s2t07.flac:2ddeb87b12a6f83b680cd63e50d2b4b2
ph2013-07-07s2t08.flac:b4fdc60fd1ef4d5383de9937188bb45b
ph2013-07-07s2t09.flac:3b14fd82ba1fbf8d3b88a6e45ebcd619

shntool output
length expanded size cdr WAVE problems fmt ratio filename
14:13.227 491458604 B cxx -- ---xx flac 0.5538 ph2013-07-07s1t01.flac
11:05.840 383523884 B cxx -- ---xx flac 0.5573 ph2013-07-07s1t02.flac
9:49.973 339824684 B cxx -- ---xx flac 0.5588 ph2013-07-07s1t03.flac
5:43.600 197913644 B cxx -- ---xx flac 0.5726 ph2013-07-07s1t04.flac
9:49.853 339755564 B cxx -- ---xx flac 0.5667 ph2013-07-07s1t05.flac
6:39.013 229831724 B cxx -- ---xx flac 0.5650 ph2013-07-07s1t06.flac
19:46.440 683389484 B cxx -- ---xx flac 0.5592 ph2013-07-07s1t07.flac
2:14.173 77283884 B cxx -- ---xx flac 0.5305 ph2013-07-07s1t08.flac
7:23.853 255659084 B cxx -- ---xx flac 0.5949 ph2013-07-07s1t09.flac
14:13.227 491458604 B cxx -- ---xx flac 0.5605 ph2013-07-07s2t01.flac
11:05.840 383523884 B cxx -- ---xx flac 0.5534 ph2013-07-07s2t02.flac
9:49.973 339824684 B cxx -- ---xx flac 0.5676 ph2013-07-07s2t03.flac
5:43.600 197913644 B cxx -- ---xx flac 0.5429 ph2013-07-07s2t04.flac
9:49.853 339755564 B cxx -- ---xx flac 0.5671 ph2013-07-07s2t05.flac
6:39.013 229831724 B cxx -- ---xx flac 0.5632 ph2013-07-07s2t06.flac
19:46.440 683389484 B cxx -- ---xx flac 0.5480 ph2013-07-07s2t07.flac
2:14.173 77283884 B cxx -- ---xx flac 0.5679 ph2013-07-07s2t08.flac
6:43.683 232521548 B cxx -- ---xx flac 0.5675 ph2013-07-07s2t09.flac
172:51.776 5974143576 B 0.5603 (18 files)

Show Checksums
24bit-FFP
ph2013-07-07s1t01.flac:d01f8d0bbd9a41ba737b8e57a72c1d92
ph2013-07-07s1t02.flac:c90dc0adb08c048bbe948f9bc1ff77df
ph2013-07-07s1t03.flac:8a3d6e1c67c23a978ebd3c000bb84d3d
ph2013-07-07s1t04.flac:1dc1d075b707ec0ca417d4936e19b81c
ph2013-07-07s1t05.flac:549aae1c593215421dfea6e4f7149aa5
ph2013-07-07s1t06.flac:30b726f7695f0d04cd442eafdad7ce4d
ph2013-07-07s1t07.flac:fc527a4d0b04d289b4c363aab4de4de7
ph2013-07-07s1t08.flac:0b886f5f76ab52d78b2f14f0e9f57e1d
ph2013-07-07s1t09.flac:de079c55d0040783e187c92ef9a4b272
ph2013-07-07s2t01.flac:617cb594d5926760b99ff85fbfb20330
ph2013-07-07s2t02.flac:735db15fd95f3ebf68cd5cdea610a17d
ph2013-07-07s2t03.flac:d60dd7d7403a5ea2d4c3ecf20faa10ce
ph2013-07-07s2t04.flac:4b37a93d464b084e485cbd3ef0539963
ph2013-07-07s2t05.flac:569e8cf9d001915207ee1044ad7eab88
ph2013-07-07s2t06.flac:2d2b0ac36367466000fa364c914ee3bd
ph2013-07-07s2t07.flac:2ddeb87b12a6f83b680cd63e50d2b4b2
ph2013-07-07s2t08.flac:b4fdc60fd1ef4d5383de9937188bb45b
ph2013-07-07s2t09.flac:3b14fd82ba1fbf8d3b88a6e45ebcd619

Comments
Add Comment
Other Sources (comments)
flac16; DPA 4023 >... (0) flac16; DPA 4011 >... (0) flac24; Schoeps MK41... (0) flac16; Schoeps MK41... (0) flac16; Schoeps MK41... (0) flac24; Schoeps MK41... (0) flac24; DPA 4023 >... (0) flac16; Neumann... (0) flac16; Neumann... (0) flac16; DPA 4023 >... (0) flac24; DPA 4023 >... (0) flac16; DPA 4052 >... (0) flac24; DPA 4052 >... (0) flac16; DPA 4023 >... (0) flac24; DPA 4023 >... (0)
Date User Comment