Browse Collections Artists Sources   Search Dates

Add Show    List Management    Help


Phish 07/07/13
Saratoga Performing Arts Center, Saratoga Springs, NY
Comments Add Comment    Source Collectors    Add to Collection    Add to Want List    History
Source # 124977 Other Sources
Entered by Jason Sobel
Checksums 16bit-FFP
Disc Counts 0 / 0
Media Size Compressed: 919.83 MB (964511662 bytes)
Date Circulated
Date Added
07/08/2013
07/08/2013
Source Summary flac16; Schoeps MK41 > KC5 > CMC6 > Sonosax SX-R4 + Schoeps mk22 > Nbob actives > Naiant PFAs > Sonosax SX-R4 (24bit/96khz); WAV > USB > Macbook Pro > Audacity (mixing) > Wave Editor (tracking, fades, resample/dither to 16 bit/44.1k) > XAct (FLAC 8); Taped & Transferred by Andy Murray 
Source Information - Download Text | Download Zip
Phish
2013-07-07
Saratoga Performing Arts Center
Saratoga Springs, NY

mics were in the tapers section left of center
mk22s were NOS/mk41s were DIN

Source:
Schoeps MK41>KC5>CMC6>Sonosax SX-R4
Schoeps mk22>Nbob actives>Naiant PFAs>Sonosax SX-R4 (24bit/96khz)

Lineage:
WAV>USB>Macbook Pro>Audacity(mixing)>Wave Editor(tracking,fades,resample(izotope)/dither(mbit+)to 16 bit/44.1k)>XAct(FLAC 8,ffp,fix sbe)

Taped by: Andy Murray
Transferred by: Andy Murray

Set 1:

01. crowd
02. AC/DC Bag >
03. Back on the Train >
04. Divided Sky
05. Free >
06. It's Ice >
07. Mound
08. Maze
09. Limb By Limb
10. Walls of the Cave

Set 2:

01. crowd
02. Down with Disease [1] >
03. Ghost [2] >
04. Piper [3] >
05. Wading in the Velvet Sea >
06. Run Like an Antelope [4] >
07. Meatstick [5] >
08. You Enjoy Myself

Encore:
09. encore break
10. Loving Cup

[1] Unfinished.
[2] Jumpin' Jack Flash teases.
[3] DEG tease from Trey.
[4] Lyrics changed to reference Meatstick.
[5] Japanese lyrics.

Notes: Trey teased Call to the Post prior to the start of DWD. DWD was unfinished. Ghost contained Jumpin' Jack Flash teases. Piper contained a DEG tease from Trey. The lyrics to Antelope were changed throughout to reference Meatstick that would ensue. Meatstick included the Japanese lyrics.

;flac fingerprints generated by xACT 2.23 on 2013-07-08 17:17:25 -0400

ph2013-07-07_mk41mk22mix_1644_d1t01.flac:7b868e153c984c45a6cbf8e69060ec8a
ph2013-07-07_mk41mk22mix_1644_d1t02.flac:5b5e117af2db1e1d3383b209d74c8ee0
ph2013-07-07_mk41mk22mix_1644_d1t03.flac:b92a26d5eca02ef410b692c9b5475075
ph2013-07-07_mk41mk22mix_1644_d1t04.flac:77d84d6f1d9abf64c124043793d581e1
ph2013-07-07_mk41mk22mix_1644_d1t05.flac:c0fef8bba8e1bb7b4b59092e97c88a83
ph2013-07-07_mk41mk22mix_1644_d1t06.flac:28a351a183f2d1770b934ea7e551903d
ph2013-07-07_mk41mk22mix_1644_d1t07.flac:9f3089d76532f353ed58a0f4e837c15b
ph2013-07-07_mk41mk22mix_1644_d1t08.flac:4bdea5c2a18ddf4ae3572be58f09848c
ph2013-07-07_mk41mk22mix_1644_d1t09.flac:f0a34f5fd95ba1851f4cd5d22ab63b58
ph2013-07-07_mk41mk22mix_1644_d1t10.flac:89ef00807ce03ab7736e458462bc6e42
ph2013-07-07_mk41mk22mix_1644_d2t01.flac:de389d358faa4032d9c1a2356674153d
ph2013-07-07_mk41mk22mix_1644_d2t02.flac:7356b53951ae806e50edc1b967d58874
ph2013-07-07_mk41mk22mix_1644_d2t03.flac:b6c266595b9fe66ad49226e1f83449b3
ph2013-07-07_mk41mk22mix_1644_d2t04.flac:b1c7a42014d5a5aead8de468455ce10d
ph2013-07-07_mk41mk22mix_1644_d2t05.flac:521773a90b6664fb9ac44cab69be03c4
ph2013-07-07_mk41mk22mix_1644_d2t06.flac:a036a343274cede526bbbfef728b6ca8
ph2013-07-07_mk41mk22mix_1644_d2t07.flac:76d8547ad1d0050547439881b74b34e1
ph2013-07-07_mk41mk22mix_1644_d2t08.flac:c926156a3c787a2b2a9cbad38552e5a4
ph2013-07-07_mk41mk22mix_1644_d2t09.flac:594dc7d0af1e1366b373a114b09c5e79
ph2013-07-07_mk41mk22mix_1644_d2t10.flac:14bb0ffb47f71b33352027da0d3670a0

    length     expanded size    cdr  WAVE problems  fmt   ratio  filename
     1:31.26       16113596 B   ---   --   -----    wav  1.0000  ph2013-07-07_mk41mk22mix_1644_d1t01.wav
     6:57.09       73580012 B   ---   --   -----    wav  1.0000  ph2013-07-07_mk41mk22mix_1644_d1t02.wav
    10:08.36      107335916 B   ---   --   -----    wav  1.0000  ph2013-07-07_mk41mk22mix_1644_d1t03.wav
    16:47.50      177752444 B   ---   --   -----    wav  1.0000  ph2013-07-07_mk41mk22mix_1644_d1t04.wav
     7:25.43       78599180 B   ---   --   -----    wav  1.0000  ph2013-07-07_mk41mk22mix_1644_d1t05.wav
     7:42.67       81654428 B   ---   --   -----    wav  1.0000  ph2013-07-07_mk41mk22mix_1644_d1t06.wav
     6:05.60       64527164 B   ---   --   -----    wav  1.0000  ph2013-07-07_mk41mk22mix_1644_d1t07.wav
    10:52.14      115045772 B   ---   --   -----    wav  1.0000  ph2013-07-07_mk41mk22mix_1644_d1t08.wav
     8:35.26       90907196 B   ---   --   -----    wav  1.0000  ph2013-07-07_mk41mk22mix_1644_d1t09.wav
    12:35.24      133238492 B   ---   --   -----    wav  1.0000  ph2013-07-07_mk41mk22mix_1644_d1t10.wav
     1:10.05       12359804 B   ---   --   -----    wav  1.0000  ph2013-07-07_mk41mk22mix_1644_d2t01.wav
    13:50.47      146522588 B   ---   --   -----    wav  1.0000  ph2013-07-07_mk41mk22mix_1644_d2t02.wav
    11:05.73      117477740 B   ---   --   -----    wav  1.0000  ph2013-07-07_mk41mk22mix_1644_d2t03.wav
     9:49.73      104071340 B   ---   --   -----    wav  1.0000  ph2013-07-07_mk41mk22mix_1644_d2t04.wav
     5:41.73       60324140 B   ---   --   -----    wav  1.0000  ph2013-07-07_mk41mk22mix_1644_d2t05.wav
     9:50.07      104092508 B   ---   --   -----    wav  1.0000  ph2013-07-07_mk41mk22mix_1644_d2t06.wav
     6:38.55       70336604 B   ---   --   -----    wav  1.0000  ph2013-07-07_mk41mk22mix_1644_d2t07.wav
    20:25.47      216200588 B   ---   --   -----    wav  1.0000  ph2013-07-07_mk41mk22mix_1644_d2t08.wav
     1:37.00       17110844 B   ---   --   -----    wav  1.0000  ph2013-07-07_mk41mk22mix_1644_d2t09.wav
     6:50.49       72439292 B   ---   --   -----    wav  1.0000  ph2013-07-07_mk41mk22mix_1644_d2t10.wav
   175:42.34     1859689648 B                            1.0000  (20 files)



Show Checksums
16bit-FFP
ph2013-07-07_mk41mk22mix_1644_d1t01.flac:7b868e153c984c45a6cbf8e69060ec8a
ph2013-07-07_mk41mk22mix_1644_d1t02.flac:5b5e117af2db1e1d3383b209d74c8ee0
ph2013-07-07_mk41mk22mix_1644_d1t03.flac:b92a26d5eca02ef410b692c9b5475075
ph2013-07-07_mk41mk22mix_1644_d1t04.flac:77d84d6f1d9abf64c124043793d581e1
ph2013-07-07_mk41mk22mix_1644_d1t05.flac:c0fef8bba8e1bb7b4b59092e97c88a83
ph2013-07-07_mk41mk22mix_1644_d1t06.flac:28a351a183f2d1770b934ea7e551903d
ph2013-07-07_mk41mk22mix_1644_d1t07.flac:9f3089d76532f353ed58a0f4e837c15b
ph2013-07-07_mk41mk22mix_1644_d1t08.flac:4bdea5c2a18ddf4ae3572be58f09848c
ph2013-07-07_mk41mk22mix_1644_d1t09.flac:f0a34f5fd95ba1851f4cd5d22ab63b58
ph2013-07-07_mk41mk22mix_1644_d1t10.flac:89ef00807ce03ab7736e458462bc6e42
ph2013-07-07_mk41mk22mix_1644_d2t01.flac:de389d358faa4032d9c1a2356674153d
ph2013-07-07_mk41mk22mix_1644_d2t02.flac:7356b53951ae806e50edc1b967d58874
ph2013-07-07_mk41mk22mix_1644_d2t03.flac:b6c266595b9fe66ad49226e1f83449b3
ph2013-07-07_mk41mk22mix_1644_d2t04.flac:b1c7a42014d5a5aead8de468455ce10d
ph2013-07-07_mk41mk22mix_1644_d2t05.flac:521773a90b6664fb9ac44cab69be03c4
ph2013-07-07_mk41mk22mix_1644_d2t06.flac:a036a343274cede526bbbfef728b6ca8
ph2013-07-07_mk41mk22mix_1644_d2t07.flac:76d8547ad1d0050547439881b74b34e1
ph2013-07-07_mk41mk22mix_1644_d2t08.flac:c926156a3c787a2b2a9cbad38552e5a4
ph2013-07-07_mk41mk22mix_1644_d2t09.flac:594dc7d0af1e1366b373a114b09c5e79
ph2013-07-07_mk41mk22mix_1644_d2t10.flac:14bb0ffb47f71b33352027da0d3670a0

Comments
Add Comment
Other Sources (comments)
flac16; DPA 4023 >... (0) flac24; DPA 4011 >... (0) flac16; DPA 4011 >... (0) flac24; Schoeps MK41... (0) flac16; Schoeps MK41... (0) flac24; Schoeps MK41... (0) flac24; DPA 4023 >... (0) flac16; Neumann... (0) flac16; Neumann... (0) flac16; DPA 4023 >... (0) flac24; DPA 4023 >... (0) flac16; DPA 4052 >... (0) flac24; DPA 4052 >... (0) flac16; DPA 4023 >... (0) flac24; DPA 4023 >... (0)
Date User Comment