Browse Collections Artists Sources   Search Dates

Add Show    List Management    Help


Phish 07/06/13
Saratoga Performing Arts Center, Saratoga Springs, NY
Comments Add Comment    Source Collectors    Add to Collection    Add to Want List    History
Source # 124978 Other Sources
Entered by Jason Sobel
Checksums 16bit-FFP
Disc Counts 0 / 0
Media Size Compressed: 856.22 MB (897812948 bytes)
Date Circulated
Date Added
07/08/2013
07/08/2013
Source Summary flac16; Schoeps MK41 > KC5 > CMC6 > Sonosax SX-R4 (24bit/96khz); WAV > USB > Macbook Pro > Wave Editor (tracking, fades, resample/dither to 16 bit/44.1k) > XAct (FLAC 8); Taped & Transferred by Andy Murray 
Source Information - Download Text | Download Zip
Phish
2013-07-06
Saratoga Performing Arts Center
Saratoga Springs, NY

mics were in the tapers section dfc
mk41s were DIN

Source:
Schoeps MK41>KC5>CMC6>Sonosax SX-R4 (24bit/96khz)

Lineage:
WAV>USB>Macbook Pro>Wave Editor(tracking,fades,resample(izotope)/dither(mbit+)to 16 bit/44.1k)>XAct(FLAC 8,ffp,fix sbe)

Taped by: Andy Murray
Transferred by: Andy Murray

Set 1:

01. crowd
02. Crowd Control >
03. Chalk Dust Torture
04. The Wedge
05. Funky Bitch
06. Heavy Things
07. Bug
08. Bouncing Around the Room
09. Tube >
10. Julius
11. Split Open and Melt

Set 2:

01. crowd
02. Backwards Down the Number Line >
03. Tweezer >
04. Sand >
05. Carini >
06. Architect [1]
07. Wilson >
08. Boogie On Reggae Woman >
09. Possum

Encore:
10. encore break
11. Show of Life >
12. Tweezer Reprise

[1] Phish debut

;flac fingerprints generated by xACT 2.23 on 2013-07-08 19:22:55 -0400

ph2013-07-06_mk41_1644_d1t01.flac:75a9ea4ae4f17d36655f28099090d2f2
ph2013-07-06_mk41_1644_d1t02.flac:3c547b18a8dc960c76a45eabd0c65819
ph2013-07-06_mk41_1644_d1t03.flac:0ffa3075e842b0f46a14f41c2adcb85d
ph2013-07-06_mk41_1644_d1t04.flac:316cae2579afe79a5efff0ac4659d7bd
ph2013-07-06_mk41_1644_d1t05.flac:f7c825d02479bf99173f69534243343a
ph2013-07-06_mk41_1644_d1t06.flac:9a4a1ce11d1fd07f44151f7357f8bbaa
ph2013-07-06_mk41_1644_d1t07.flac:7216ccfaa19b375c99345f0cbe18cdc2
ph2013-07-06_mk41_1644_d1t08.flac:7d2c225a7f0546d8019321378c34cb7c
ph2013-07-06_mk41_1644_d1t09.flac:f33379b4e61309c996c2265a1e1f4307
ph2013-07-06_mk41_1644_d1t10.flac:33508104732bb5e123c5f6e3b8a58124
ph2013-07-06_mk41_1644_d1t11.flac:c04dbccc65179ddea25b384f44986477
ph2013-07-06_mk41_1644_d2t01.flac:a37e22f8e923691298965025d114cff5
ph2013-07-06_mk41_1644_d2t02.flac:fe04651bb5d837e6356a955a7a3c3f62
ph2013-07-06_mk41_1644_d2t03.flac:6dd56b69e4c9f78017cce1e75f7c22ec
ph2013-07-06_mk41_1644_d2t04.flac:6368a6892ecb90168a9a984f9d04da45
ph2013-07-06_mk41_1644_d2t05.flac:4501aef3ac5d474e5d69180a21c4837d
ph2013-07-06_mk41_1644_d2t06.flac:ce0f16ebafc524693c6735eab9f68d1d
ph2013-07-06_mk41_1644_d2t07.flac:1ad5a52f815ab676824f6df6f4e5cd4b
ph2013-07-06_mk41_1644_d2t08.flac:3f92023061fb5d2c59d31c8d1c82f62d
ph2013-07-06_mk41_1644_d2t09.flac:f9a809dccc1674e400900f1d56b89300
ph2013-07-06_mk41_1644_d2t10.flac:615b971b2b09b2a55d9b475baff8ce98
ph2013-07-06_mk41_1644_d2t11.flac:7f435530dd97f318254bd101dcab5663
ph2013-07-06_mk41_1644_d2t12.flac:612b21df10db855c9d9ba88cf5b93bbe

    length     expanded size    cdr  WAVE problems  fmt   ratio  filename
     1:30.48       15988940 B   ---   --   -----    wav  1.0000  ph2013-07-06_mk41_1644_d1t01.wav
     4:14.68       44965580 B   ---   --   -----    wav  1.0000  ph2013-07-06_mk41_1644_d1t02.wav
     7:12.44       76308332 B   ---   --   -----    wav  1.0000  ph2013-07-06_mk41_1644_d1t03.wav
     7:05.63       75118220 B   ---   --   -----    wav  1.0000  ph2013-07-06_mk41_1644_d1t04.wav
     8:04.22       85429388 B   ---   --   -----    wav  1.0000  ph2013-07-06_mk41_1644_d1t05.wav
     6:59.73       74083340 B   ---   --   -----    wav  1.0000  ph2013-07-06_mk41_1644_d1t06.wav
     7:30.01       79382396 B   ---   --   -----    wav  1.0000  ph2013-07-06_mk41_1644_d1t07.wav
     3:51.58       40884860 B   ---   --   -----    wav  1.0000  ph2013-07-06_mk41_1644_d1t08.wav
     6:42.58       71049260 B   ---   --   -----    wav  1.0000  ph2013-07-06_mk41_1644_d1t09.wav
     8:22.69       88715132 B   ---   --   -----    wav  1.0000  ph2013-07-06_mk41_1644_d1t10.wav
    19:00.22      201147788 B   ---   --   -----    wav  1.0000  ph2013-07-06_mk41_1644_d1t11.wav
     0:54.14        9558572 B   ---   --   -----    wav  1.0000  ph2013-07-06_mk41_1644_d2t01.wav
     7:46.15       82237724 B   ---   --   -----    wav  1.0000  ph2013-07-06_mk41_1644_d2t02.wav
    10:02.12      106221068 B   ---   --   -----    wav  1.0000  ph2013-07-06_mk41_1644_d2t03.wav
     9:35.07      101446508 B   ---   --   -----    wav  1.0000  ph2013-07-06_mk41_1644_d2t04.wav
    12:04.17      127753628 B   ---   --   -----    wav  1.0000  ph2013-07-06_mk41_1644_d2t05.wav
     6:33.36       69409916 B   ---   --   -----    wav  1.0000  ph2013-07-06_mk41_1644_d2t06.wav
     4:28.19       47319932 B   ---   --   -----    wav  1.0000  ph2013-07-06_mk41_1644_d2t07.wav
     6:39.54       70510652 B   ---   --   -----    wav  1.0000  ph2013-07-06_mk41_1644_d2t08.wav
     8:52.66       94000076 B   ---   --   -----    wav  1.0000  ph2013-07-06_mk41_1644_d2t09.wav
     2:13.47       23571788 B   ---   --   -----    wav  1.0000  ph2013-07-06_mk41_1644_d2t10.wav
     5:50.16       61777676 B   ---   --   -----    wav  1.0000  ph2013-07-06_mk41_1644_d2t11.wav
     4:51.45       51438284 B   ---   --   -----    wav  1.0000  ph2013-07-06_mk41_1644_d2t12.wav
   160:27.49     1698319060 B                            1.0000  (23 files)

Show Checksums
16bit-FFP
ph2013-07-06_mk41_1644_d1t01.flac:75a9ea4ae4f17d36655f28099090d2f2
ph2013-07-06_mk41_1644_d1t02.flac:3c547b18a8dc960c76a45eabd0c65819
ph2013-07-06_mk41_1644_d1t03.flac:0ffa3075e842b0f46a14f41c2adcb85d
ph2013-07-06_mk41_1644_d1t04.flac:316cae2579afe79a5efff0ac4659d7bd
ph2013-07-06_mk41_1644_d1t05.flac:f7c825d02479bf99173f69534243343a
ph2013-07-06_mk41_1644_d1t06.flac:9a4a1ce11d1fd07f44151f7357f8bbaa
ph2013-07-06_mk41_1644_d1t07.flac:7216ccfaa19b375c99345f0cbe18cdc2
ph2013-07-06_mk41_1644_d1t08.flac:7d2c225a7f0546d8019321378c34cb7c
ph2013-07-06_mk41_1644_d1t09.flac:f33379b4e61309c996c2265a1e1f4307
ph2013-07-06_mk41_1644_d1t10.flac:33508104732bb5e123c5f6e3b8a58124
ph2013-07-06_mk41_1644_d1t11.flac:c04dbccc65179ddea25b384f44986477
ph2013-07-06_mk41_1644_d2t01.flac:a37e22f8e923691298965025d114cff5
ph2013-07-06_mk41_1644_d2t02.flac:fe04651bb5d837e6356a955a7a3c3f62
ph2013-07-06_mk41_1644_d2t03.flac:6dd56b69e4c9f78017cce1e75f7c22ec
ph2013-07-06_mk41_1644_d2t04.flac:6368a6892ecb90168a9a984f9d04da45
ph2013-07-06_mk41_1644_d2t05.flac:4501aef3ac5d474e5d69180a21c4837d
ph2013-07-06_mk41_1644_d2t06.flac:ce0f16ebafc524693c6735eab9f68d1d
ph2013-07-06_mk41_1644_d2t07.flac:1ad5a52f815ab676824f6df6f4e5cd4b
ph2013-07-06_mk41_1644_d2t08.flac:3f92023061fb5d2c59d31c8d1c82f62d
ph2013-07-06_mk41_1644_d2t09.flac:f9a809dccc1674e400900f1d56b89300
ph2013-07-06_mk41_1644_d2t10.flac:615b971b2b09b2a55d9b475baff8ce98
ph2013-07-06_mk41_1644_d2t11.flac:7f435530dd97f318254bd101dcab5663
ph2013-07-06_mk41_1644_d2t12.flac:612b21df10db855c9d9ba88cf5b93bbe

Comments
Add Comment
Other Sources (comments)
flac24; Schoeps MK41... (0) flac16; Schoeps MK41... (0) flac16; DPA 4023 >... (0) flac24; Schoeps MK41... (0) flac16; DPA 4011 >... (0) flac24; DPA 4011 >... (0) flac24; DPA 4023 >... (0) flac16; Neumann... (0) flac16; Neumann... (0) flac16; DPA 4023 >... (0) flac24; DPA 4023 >... (0) flac16; DPA 4052 >... (0) flac24; DPA 4052 >... (0) flac16; DPA 4023 >... (0) flac24; DPA 4023 >... (0) flac16; Neumann... (0)
Date User Comment