Browse Collections Artists Sources   Search Dates

Add Show    List Management    Help


Phish 07/06/13
Saratoga Performing Arts Center, Saratoga Springs, NY
Comments Add Comment    Source Collectors    Add to Collection    Add to Want List    History
Source # 125004 Other Sources
Entered by Jason Sobel
Checksums 16bit-FFP
Disc Counts 0 / 0
Media Size Compressed: 871.97 MB (914330421 bytes)
Date Circulated
Date Added
07/10/2013
07/10/2013
Source Summary flac16; DPA 4011 > Lunatec V3 (digital out) > Edirol R44 (24/96); SDHC Card > Sound Forge Pro 10.0 (fades, Normalize, resample, dither) > CD Wave (tracking) > TLH > Flac (level 8); Taped & Transferred by Brian V. 
Source Information - Download Text | Download Zip
Phish
2013-07-06
Saratoga Performing Arts Center
Saratoga Springs, NY

DPA 4011 > V3 Digital > R44 (24/96)
SDHC Card > Sound Forge Pro 10.0 (fades, Normalize, resample iZotope 64-Bit SRC, dither iZotope MBIT+ Dither) > CD Wav (tracking) > TLH > Flac (level 8)
OTS/a bit LOC, clamped to back rail of FOH/DIN/8' high
Tags added in Foobar2000

Taped and Transferred by Brian V

Set 1

01. Crowd Control% >
02. Chalk Dust Torture
03. The Wedge
04. Funky Bitch
05. Heavy Things
06. Bug
07. Bouncing Around the Room
08. Tube >
09. Julius
10. Split Open and Melt

Set 2

01. Backwards Down the Number Line >
02. Tweezer >
03. Sand >
04. Carini >
05. Architect#
06. Wilson >
07. Boogie On Reggae Woman >
08. Possum
09. encore break
10. Show of Life >
11. Tweezer Reprise

% I had a loose connection and had a dropout for a couple seconds in the beginning of Crowd Control.  I used Andy's source to patch approximately 3 seconds (0:08 - 0:11)
Patch source info is Schoeps MK41>KC5>CMC6>Sonosax SX-R4 (24bit/96khz)

# first time played by Phish

thanks to Andy for the clamp space and the patch source

flac fingerprints
ph2013-07-06s1t01.flac:2860e976451ebb0755cf2cc6c6a9b880
ph2013-07-06s1t02.flac:18f74e0d8d99c57bf26031d9d85cd470
ph2013-07-06s1t03.flac:26fffc403136d7a9a0eab060e3aeeecd
ph2013-07-06s1t04.flac:f363f5d8cf13820723db203102dbf3a1
ph2013-07-06s1t05.flac:751eff1156b405515562462226779f7f
ph2013-07-06s1t06.flac:798d75a69a1099c6684cb1f39f2b2d1d
ph2013-07-06s1t07.flac:82993dce2e24db6b4721e098d42fa68a
ph2013-07-06s1t08.flac:fc3598b3a8fa0fd8327f665319033794
ph2013-07-06s1t09.flac:b3c4f7ad92254e110d0d83d2df20c904
ph2013-07-06s1t10.flac:f81cab9338772250695da16f216943b8
ph2013-07-06s2t01.flac:671c266a921c1b9c67fa36adab564a5b
ph2013-07-06s2t02.flac:af14b4f6e388480c3f08f2bb93aa2b70
ph2013-07-06s2t03.flac:024525333e3ecbbf00fe67f0d83c047f
ph2013-07-06s2t04.flac:2fc450d03f143f878be0d38964d5ce77
ph2013-07-06s2t05.flac:4b836f047e8d090d358dbf28344340b8
ph2013-07-06s2t06.flac:ebc100d3f1edb4999bfb7b37d3dc7f49
ph2013-07-06s2t07.flac:3adc78d64145de96127e9f0812c294d2
ph2013-07-06s2t08.flac:23f40a9edb56137a54d5197b021a442f
ph2013-07-06s2t09.flac:7dcecd28f1f81a3e4e7f7cd1de45a616
ph2013-07-06s2t10.flac:4aa92265ce68547c1b6e639c9d43c2db
ph2013-07-06s2t11.flac:c861151333060018e62b347632b9264e

shntool output
    length     expanded size    cdr  WAVE problems  fmt   ratio  filename
     4:19.14       45720572 B   ---   --   ---xx   flac  0.5713  ph2013-07-06s1t01.flac
     7:12.35       76287164 B   ---   --   ---xx   flac  0.5758  ph2013-07-06s1t02.flac
     7:07.05       75334604 B   ---   --   ---xx   flac  0.5555  ph2013-07-06s1t03.flac
     8:03.15       85236524 B   ---   --   ---xx   flac  0.5588  ph2013-07-06s1t04.flac
     7:00.18       74130380 B   ---   --   ---xx   flac  0.5256  ph2013-07-06s1t05.flac
     7:29.11       79229516 B   ---   --   ---xx   flac  0.5432  ph2013-07-06s1t06.flac
     3:54.12       41305868 B   ---   --   ---xx   flac  0.5322  ph2013-07-06s1t07.flac
     6:42.35       70995164 B   ---   --   ---xx   flac  0.5617  ph2013-07-06s1t08.flac
     8:21.04       88385852 B   ---   --   ---xx   flac  0.5788  ph2013-07-06s1t09.flac
    18:25.43      195023180 B   ---   --   ---xx   flac  0.5372  ph2013-07-06s1t10.flac
     7:48.49       82670492 B   ---   --   ---xx   flac  0.5504  ph2013-07-06s2t01.flac
    10:02.27      106256348 B   ---   --   ---xx   flac  0.5665  ph2013-07-06s2t02.flac
     9:35.47      101540588 B   ---   --   ---xx   flac  0.5437  ph2013-07-06s2t03.flac
    12:07.52      128365148 B   ---   --   ---xx   flac  0.5467  ph2013-07-06s2t04.flac
     6:29.34       68699612 B   ---   --   ---xx   flac  0.5286  ph2013-07-06s2t05.flac
     4:27.53       47223500 B   ---   --   ---xx   flac  0.5635  ph2013-07-06s2t06.flac
     6:40.10       70583564 B   ---   --   ---xx   flac  0.5441  ph2013-07-06s2t07.flac
     8:56.09       94571612 B   ---   --   ---xx   flac  0.5627  ph2013-07-06s2t08.flac
     2:18.15       24378524 B   ---   --   ---xx   flac  0.5097  ph2013-07-06s2t09.flac
     5:42.15       60364124 B   ---   --   ---xx   flac  0.5351  ph2013-07-06s2t10.flac
     3:52.13       40955420 B   ---   --   ---xx   flac  0.6024  ph2013-07-06s2t11.flac
   156:34.66     1657257756 B                            0.5517  (21 files)

Show Checksums
16bit-FFP
ph2013-07-06s1t01.flac:2860e976451ebb0755cf2cc6c6a9b880
ph2013-07-06s1t02.flac:18f74e0d8d99c57bf26031d9d85cd470
ph2013-07-06s1t03.flac:26fffc403136d7a9a0eab060e3aeeecd
ph2013-07-06s1t04.flac:f363f5d8cf13820723db203102dbf3a1
ph2013-07-06s1t05.flac:751eff1156b405515562462226779f7f
ph2013-07-06s1t06.flac:798d75a69a1099c6684cb1f39f2b2d1d
ph2013-07-06s1t07.flac:82993dce2e24db6b4721e098d42fa68a
ph2013-07-06s1t08.flac:fc3598b3a8fa0fd8327f665319033794
ph2013-07-06s1t09.flac:b3c4f7ad92254e110d0d83d2df20c904
ph2013-07-06s1t10.flac:f81cab9338772250695da16f216943b8
ph2013-07-06s2t01.flac:671c266a921c1b9c67fa36adab564a5b
ph2013-07-06s2t02.flac:af14b4f6e388480c3f08f2bb93aa2b70
ph2013-07-06s2t03.flac:024525333e3ecbbf00fe67f0d83c047f
ph2013-07-06s2t04.flac:2fc450d03f143f878be0d38964d5ce77
ph2013-07-06s2t05.flac:4b836f047e8d090d358dbf28344340b8
ph2013-07-06s2t06.flac:ebc100d3f1edb4999bfb7b37d3dc7f49
ph2013-07-06s2t07.flac:3adc78d64145de96127e9f0812c294d2
ph2013-07-06s2t08.flac:23f40a9edb56137a54d5197b021a442f
ph2013-07-06s2t09.flac:7dcecd28f1f81a3e4e7f7cd1de45a616
ph2013-07-06s2t10.flac:4aa92265ce68547c1b6e639c9d43c2db
ph2013-07-06s2t11.flac:c861151333060018e62b347632b9264e

Comments
Add Comment
Other Sources (comments)
flac24; Schoeps MK41... (0) flac16; Schoeps MK41... (0) flac16; DPA 4023 >... (0) flac16; Schoeps MK41... (0) flac24; Schoeps MK41... (0) flac24; DPA 4011 >... (0) flac24; DPA 4023 >... (0) flac16; Neumann... (0) flac16; Neumann... (0) flac16; DPA 4023 >... (0) flac24; DPA 4023 >... (0) flac16; DPA 4052 >... (0) flac24; DPA 4052 >... (0) flac16; DPA 4023 >... (0) flac24; DPA 4023 >... (0) flac16; Neumann... (0)
Date User Comment