Browse Collections Artists Sources   Search Dates

Add Show    List Management    Help


Phish 07/06/13
Saratoga Performing Arts Center, Saratoga Springs, NY
Comments Add Comment    Source Collectors    Add to Collection    Add to Want List    History
Source # 125005 Other Sources
Entered by Jason Sobel
Checksums 24bit-FFP
Disc Counts 0 / 0
Media Size Compressed: 2.83 GB (3040251016 bytes)
Date Circulated
Date Added
07/10/2013
07/10/2013
Source Summary flac24; DPA 4011 > Lunatec V3 (digital out) > Edirol R44 (24/96); SDHC Card > Sound Forge Pro 10.0 (fades, Normalize) > CD Wave (tracking) > TLH > Flac (level 8); Taped & Transferred by Brian V. 
Source Information - Download Text | Download Zip
Phish
2013-07-06
Saratoga Performing Arts Center
Saratoga Springs, NY

DPA 4011 > V3 Digital > R44 (24/96)
SDHC Card > Sound Forge Pro 10.0 (fades, Normalize) > CD Wav (tracking) > TLH > Flac (level 8)
OTS/a bit LOC, clamped to back rail of FOH/DIN/8' high
Tags added in Foobar2000

Taped and Transferred by Brian V

Set 1

01. Crowd Control% >
02. Chalk Dust Torture
03. The Wedge
04. Funky Bitch
05. Heavy Things
06. Bug
07. Bouncing Around the Room
08. Tube >
09. Julius
10. Split Open and Melt

Set 2

01. Backwards Down the Number Line >
02. Tweezer >
03. Sand >
04. Carini >
05. Architect#
06. Wilson >
07. Boogie On Reggae Woman >
08. Possum
09. encore break
10. Show of Life >
11. Tweezer Reprise

% I had a loose connection and had a dropout for a couple seconds in the beginning of Crowd Control.  I used Andy's source to patch approximately 3 seconds (0:08 - 0:11)
Patch source info is Schoeps MK41>KC5>CMC6>Sonosax SX-R4 (24bit/96khz)

# first time played by Phish

thanks to Andy for the clamp space and the patch source

flac fingerprints
ph2013-07-06s1t01.flac:07bad87e87ca5b2618390446589c7c46
ph2013-07-06s1t02.flac:4f052ea270b4f4fbc88b19620c229522
ph2013-07-06s1t03.flac:27e12418fdd73635897089a3fe2c68aa
ph2013-07-06s1t04.flac:47961c80013be389964420da7657cf08
ph2013-07-06s1t05.flac:aa5b8cae442be60facec50693fb7a17f
ph2013-07-06s1t06.flac:0500bb471871291f69dc8010fba9ec34
ph2013-07-06s1t07.flac:cd1031ade4f736396e7f73ad7e906232
ph2013-07-06s1t08.flac:528ee24a81897eaabe11bb8db7d66f37
ph2013-07-06s1t09.flac:d39191da97763c49200ef66a1962b8a0
ph2013-07-06s1t10.flac:1f165e7bdb86a03b8a22cd4699b2cb32
ph2013-07-06s2t01.flac:3015f33ca51abe91c639bf584cce73e0
ph2013-07-06s2t02.flac:a39eea428faf835afa819c879cdf2344
ph2013-07-06s2t03.flac:5a8bf7d8a94864efed8ec6b8a862bd4f
ph2013-07-06s2t04.flac:ffd7604df7bbef650ba93352f0fd6b31
ph2013-07-06s2t05.flac:6087e2bd900dd267556c5f6d111c435f
ph2013-07-06s2t06.flac:edb10294df2fb6f5cca0ada1fb72b069
ph2013-07-06s2t07.flac:c654872f0fc44843727aba1952495dbc
ph2013-07-06s2t08.flac:abdceb4ee76598b10035bfdaf6c5162f
ph2013-07-06s2t09.flac:5fe2a91bb1a3e2967cae9c271729f9ff
ph2013-07-06s2t10.flac:a2ba3024272b25c0f5dcf72f8034aa5b
ph2013-07-06s2t11.flac:d3c98ef008e05bf64450795fadb78efb

shntool output
    length     expanded size    cdr  WAVE problems  fmt   ratio  filename
     4:19.187     149291564 B   cxx   --   ---xx   flac  0.5698  ph2013-07-06s1t01.flac
     7:12.467     249100844 B   cxx   --   ---xx   flac  0.5754  ph2013-07-06s1t02.flac
     7:07.067     245990444 B   cxx   --   ---xx   flac  0.5627  ph2013-07-06s1t03.flac
     8:03.200     278323244 B   cxx   --   ---xx   flac  0.5651  ph2013-07-06s1t04.flac
     7:00.240     242058284 B   cxx   --   ---xx   flac  0.5453  ph2013-07-06s1t05.flac
     7:29.147     258708524 B   cxx   --   ---xx   flac  0.5550  ph2013-07-06s1t06.flac
     3:54.160     134876204 B   cxx   --   ---xx   flac  0.5495  ph2013-07-06s1t07.flac
     6:42.467     231820844 B   cxx   --   ---xx   flac  0.5659  ph2013-07-06s1t08.flac
     8:21.053     288606764 B   cxx   --   ---xx   flac  0.5775  ph2013-07-06s1t09.flac
    18:25.561     636802916 B   cxx   --   ---xx   flac  0.5523  ph2013-07-06s1t10.flac
     7:48.653     269944364 B   cxx   --   ---xx   flac  0.5611  ph2013-07-06s2t01.flac
    10:02.360     346959404 B   cxx   --   ---xx   flac  0.5729  ph2013-07-06s2t02.flac
     9:35.627     331561004 B   cxx   --   ---xx   flac  0.5567  ph2013-07-06s2t03.flac
    12:07.693     419151404 B   cxx   --   ---xx   flac  0.5594  ph2013-07-06s2t04.flac
     6:29.453     224325164 B   cxx   --   ---xx   flac  0.5481  ph2013-07-06s2t05.flac
     4:27.707     154199084 B   cxx   --   ---xx   flac  0.5708  ph2013-07-06s2t06.flac
     6:40.133     230476844 B   cxx   --   ---xx   flac  0.5556  ph2013-07-06s2t07.flac
     8:56.120     308805164 B   cxx   --   ---xx   flac  0.5704  ph2013-07-06s2t08.flac
     2:18.200      79603244 B   cxx   --   ---xx   flac  0.5454  ph2013-07-06s2t09.flac
     5:42.200     197107244 B   cxx   --   ---xx   flac  0.5528  ph2013-07-06s2t10.flac
     3:52.173     133731884 B   cxx   --   ---xx   flac  0.5985  ph2013-07-06s2t11.flac
   156:34.867    5411444436 B                            0.5618  (21 files)

Show Checksums
24bit-FFP
ph2013-07-06s1t01.flac:07bad87e87ca5b2618390446589c7c46
ph2013-07-06s1t02.flac:4f052ea270b4f4fbc88b19620c229522
ph2013-07-06s1t03.flac:27e12418fdd73635897089a3fe2c68aa
ph2013-07-06s1t04.flac:47961c80013be389964420da7657cf08
ph2013-07-06s1t05.flac:aa5b8cae442be60facec50693fb7a17f
ph2013-07-06s1t06.flac:0500bb471871291f69dc8010fba9ec34
ph2013-07-06s1t07.flac:cd1031ade4f736396e7f73ad7e906232
ph2013-07-06s1t08.flac:528ee24a81897eaabe11bb8db7d66f37
ph2013-07-06s1t09.flac:d39191da97763c49200ef66a1962b8a0
ph2013-07-06s1t10.flac:1f165e7bdb86a03b8a22cd4699b2cb32
ph2013-07-06s2t01.flac:3015f33ca51abe91c639bf584cce73e0
ph2013-07-06s2t02.flac:a39eea428faf835afa819c879cdf2344
ph2013-07-06s2t03.flac:5a8bf7d8a94864efed8ec6b8a862bd4f
ph2013-07-06s2t04.flac:ffd7604df7bbef650ba93352f0fd6b31
ph2013-07-06s2t05.flac:6087e2bd900dd267556c5f6d111c435f
ph2013-07-06s2t06.flac:edb10294df2fb6f5cca0ada1fb72b069
ph2013-07-06s2t07.flac:c654872f0fc44843727aba1952495dbc
ph2013-07-06s2t08.flac:abdceb4ee76598b10035bfdaf6c5162f
ph2013-07-06s2t09.flac:5fe2a91bb1a3e2967cae9c271729f9ff
ph2013-07-06s2t10.flac:a2ba3024272b25c0f5dcf72f8034aa5b
ph2013-07-06s2t11.flac:d3c98ef008e05bf64450795fadb78efb

Comments
Add Comment
Other Sources (comments)
flac24; Schoeps MK41... (0) flac16; Schoeps MK41... (0) flac16; DPA 4023 >... (0) flac16; Schoeps MK41... (0) flac24; Schoeps MK41... (0) flac16; DPA 4011 >... (0) flac24; DPA 4023 >... (0) flac16; Neumann... (0) flac16; Neumann... (0) flac16; DPA 4023 >... (0) flac24; DPA 4023 >... (0) flac16; DPA 4052 >... (0) flac24; DPA 4052 >... (0) flac16; DPA 4023 >... (0) flac24; DPA 4023 >... (0) flac16; Neumann... (0)
Date User Comment